×

¿Problemas para descargar con Mozilla, EDGE? Deshabilita la opción "Abrir vinculos en una pestaña nueva" tal como lo muestra ésta imagen.

Los asesinos de la luna (2023) PLACEBO Full HD 1080p Latino

231 vistas

Información de Los asesinos de la luna (2023) PLACEBO Full HD 1080p Latino

Datos de la película

  • Calidad: Full 1080p
  • Audio: Español Latino AC3 5.1 WEB-DL - Ingles DTS 5.1 BLURAY
  • Subtitulos: Español Latino SRT- FORZADOS SRT
  • Resolución: 1920x1080p
  • Formato: MKV
  • Codec: H.264
  • Encoder: Melkor
  • Mediainfo: Clic para Mostrar Datos Ver
  • Los asesinos de la luna (2023) PLACEBO 1080p Latino.mkv
    Format                      : Matroska
    Format version              : Version 4
    File size                   : 8.92 GiB
    Duration                    : 3 h 25 min
    Overall bit rate            : 6 204 kb/s
    Movie name                  : Killers Of The Flower Moon (2023) CinemaniaHDD.Net
    Encoded date                : UTC 2024-01-22 00:52:54
    Writing application         : mkvmerge v56.1.0 ('My Friend') 64-bit
    Writing library             : libebml v1.4.2 + libmatroska v1.6.4
    Cover                       : Yes
    Attachments                 : CINEMANIAHD.png / cover.jpg / CINEMANIAHD.png
    Site                        : CinemaniaHDD.Net
    Uploader                    : Melkor

    Video
    ID                          : 1
    Format                      : AVC
    Format/Info                 : Advanced Video Codec
    Format profile              : High@L4.1
    Format settings             : CABAC / 4 Ref Frames
    Format settings, CABAC      : Yes
    Format settings, Reference  : 4 frames
    Codec ID                    : V_MPEG4/ISO/AVC
    Duration                    : 3 h 25 min
    Bit rate                    : 4 052 kb/s
    Width                       : 1 920 pixels
    Height                      : 1 080 pixels
    Display aspect ratio        : 16:9
    Frame rate mode             : Constant
    Frame rate                  : 24.000 FPS
    Color space                 : YUV
    Chroma subsampling          : 4:2:0
    Bit depth                   : 8 bits
    Scan type                   : Progressive
    Bits/(Pixel*Frame)          : 0.081
    Stream size                 : 5.82 GiB (65%)
    Title                       : Full HD1080p [CinemaniaHDD]
    Writing library             : x264 core 163 r3059 b684ebe0
    Encoding settings           : cabac=1 / ref=4 / deblock=1:0:0 / analyse=0x3:0x133 / me=tesa / subme=11 / psy=1 / psy_rd=1.00:0.00 / mixed_ref=1 / me_range=24 / chroma_me=1 / trellis=2 / 8x8dct=1 / cqm=0 / deadzone=21,11 / fast_pskip=0 / chroma_qp_offset=-2 / threads=24 / lookahead_threads=6 / sliced_threads=0 / nr=0 / decimate=1 / interlaced=0 / bluray_compat=0 / constrained_intra=0 / bframes=16 / b_pyramid=2 / b_adapt=2 / b_bias=0 / direct=3 / weightb=1 / open_gop=0 / weightp=2 / keyint=240 / keyint_min=24 / scenecut=40 / intra_refresh=0 / rc_lookahead=60 / rc=crf / mbtree=1 / crf=19.0 / qcomp=0.60 / qpmin=0 / qpmax=69 / qpstep=4 / vbv_maxrate=62500 / vbv_bufsize=78125 / crf_max=0.0 / nal_hrd=none / filler=0 / ip_ratio=1.40 / aq=1:1.00
    Default                     : Yes
    Forced                      : Yes
    Color range                 : Limited
    Color primaries             : BT.709
    Transfer characteristics    : BT.709
    Matrix coefficients         : BT.709

    Audio #1
    ID                          : 2
    Format                      : AC-3
    Format/Info                 : Audio Coding 3
    Commercial name             : Dolby Digital
    Codec ID                    : A_AC3
    Duration                    : 3 h 25 min
    Bit rate mode               : Constant
    Bit rate                    : 640 kb/s
    Channel(s)                  : 6 channels
    Channel layout              : L R C LFE Ls Rs
    Sampling rate               : 48.0 kHz
    Frame rate                  : 31.250 FPS (1536 SPF)
    Compression mode            : Lossy
    Delay relative to video     : 16 ms
    Stream size                 : 942 MiB (10%)
    Title                       : Español Latino [CinemaniaHDD]
    Language                    : Spanish
    Service kind                : Complete Main
    Default                     : Yes
    Forced                      : Yes

    Audio #2
    ID                          : 3
    Format                      : DTS
    Format/Info                 : Digital Theater Systems
    Codec ID                    : A_DTS
    Duration                    : 3 h 25 min
    Bit rate mode               : Constant
    Bit rate                    : 1 509 kb/s
    Channel(s)                  : 6 channels
    Channel layout              : C L R Ls Rs LFE
    Sampling rate               : 48.0 kHz
    Frame rate                  : 93.750 FPS (512 SPF)
    Bit depth                   : 24 bits
    Compression mode            : Lossy
    Stream size                 : 2.17 GiB (24%)
    Title                       : Ingles [CinemaniaHDD]
    Language                    : English
    Default                     : No
    Forced                      : No

    Text #1
    ID                          : 4
    Format                      : UTF-8
    Codec ID                    : S_TEXT/UTF8
    Codec ID/Info               : UTF-8 Plain Text
    Duration                    : 3 h 21 min
    Bit rate                    : 1 b/s
    Count of elements           : 90
    Stream size                 : 2.46 KiB (0%)
    Title                       : Forzados-SRT [CinemaniaHDD]
    Language                    : Spanish
    Default                     : Yes
    Forced                      : Yes

    Text #2
    ID                          : 5
    Format                      : UTF-8
    Codec ID                    : S_TEXT/UTF8
    Codec ID/Info               : UTF-8 Plain Text
    Duration                    : 3 h 24 min
    Bit rate                    : 54 b/s
    Count of elements           : 2422
    Stream size                 : 82.0 KiB (0%)
    Title                       : Español-SRT [CinemaniaHDD]
    Language                    : Spanish
    Default                     : No
    Forced                      : No

    Text #3
    ID                          : 6
    ID in the original source m : 4610 (0x1202)
    Format                      : PGS
    Muxing mode                 : zlib
    Codec ID                    : S_HDMV/PGS
    Codec ID/Info               : Picture based subtitle format used on BDs/HD-DVDs
    Duration                    : 2 h 48 min
    Bit rate                    : 698 b/s
    Count of elements           : 162
    Stream size                 : 860 KiB (0%)
    Title                       : Ingles [CinemaniaHDD]
    Language                    : English
    Default                     : No
    Forced                      : No
    Original source medium      : Blu-ray

    Menu
    00:00:00.000                : Chapter 01
    00:14:27.291                : Chapter 02
    00:34:27.791                : Chapter 03
    00:52:02.250                : Chapter 04
    01:11:14.500                : Chapter 05
    01:24:03.625                : Chapter 06
    01:41:36.375                : Chapter 07
    01:59:10.291                : Chapter 08
    02:12:39.916                : Chapter 09
    02:30:51.958                : Chapter 10
    02:48:02.041                : Chapter 11
    03:06:23.625                : Chapter 12

  • Peso: 8.92 GiB

Sinopsis

Descargar Los asesinos de la luna (2023) PLACEBO Full HD 1080p Latino. Miembros de la tribu Osage de los Estados Unidos, son asesinados bajo misteriosas circunstancias en la década de 1920 provocando una importante investigación por el FBI involucrando a J. Edgar Hoover.

Ficha técnica

Video trailer de la película

Enlaces de descarga

Rip de Bluray

Descargar Los asesinos de la luna (2023) PLACEBO Full HD 1080p Latino




Aportes de DPeliculasHDmega la pass es:dpeliculashdmega.org Aportes de CinemaniaHD la pass es:cinemaniahdd.com Aportes recientes:cinemaniahdd.net

Películas relacionadas

descargar Los asesinos de la luna (2023) PLACEBO Full HD 1080p Latino Full 1080p 1080p gratis, Los asesinos de la luna (2023) PLACEBO Full HD 1080p Latino Full 1080p mega 1 link, Los asesinos de la luna (2023) PLACEBO Full HD 1080p Latino Full 1080p pelicula completa, descargar Los asesinos de la luna (2023) PLACEBO Full HD 1080p Latino Full 1080p gratis en mega.

Los asesinos de la luna (2023) PLACEBO Full HD 1080p Latino pelicula full hd, Los asesinos de la luna (2023) PLACEBO Full HD 1080p Latino mega latino, Los asesinos de la luna (2023) PLACEBO Full HD 1080p Latino 4k latino, Los asesinos de la luna (2023) PLACEBO Full HD 1080p Latino pelicula completa, Los asesinos de la luna (2023) PLACEBO Full HD 1080p Latino descargar gratis, descargar Los asesinos de la luna (2023) PLACEBO Full HD 1080p Latino pelicula latino, Los asesinos de la luna (2023) PLACEBO Full HD 1080p Latino 1 link mega, Los asesinos de la luna (2023) PLACEBO Full HD 1080p Latino 1 link google drive, Los asesinos de la luna (2023) PLACEBO Full HD 1080p Latino hd 1080p latino.
Comentarios 0