×

¿Problemas para descargar con Mozilla, EDGE? Deshabilita la opción "Abrir vinculos en una pestaña nueva" tal como lo muestra ésta imagen.

Los Aristogatos (1970) HD 1080p Latino – CMHDD

377 vistas

Información de Los Aristogatos (1970) HD 1080p Latino – CMHDD

Datos de la película

  • Calidad: 1080p
  • Audio: Español Latino AC3 5.1 BLURAY - Ingles AC3 5.1 BLURAY
  • Subtitulos: Español Latino SRT- FORZADOS SRT
  • Resolución: 1798x1080p
  • Formato: MKV
  • Codec: H.264
  • Encoder: Dracarys
  • Mediainfo: Clic para Mostrar Datos Ver
  • Format                      : Matroska
    Format version              : Version 4
    File size                   : 2.63 GiB
    Duration                    : 1 h 18 min
    Overall bit rate            : 4 795 kb/s
    Movie name                  : Los Aristogatos (1970) HD 1080p Latino - CMHDD
    Encoded date                : UTC 2020-07-01 05:35:59
    Writing application         : mkvmerge v46.0.0 ('No Deeper Escape') 64-bit
    Writing library             : libebml v1.3.10 + libmatroska v1.5.2

    Video
    ID                          : 1
    Format                      : AVC
    Format/Info                 : Advanced Video Codec
    Format profile              : High@L4.1
    Format settings             : CABAC / 4 Ref Frames
    Format settings, CABAC      : Yes
    Format settings, Reference  : 4 frames
    Codec ID                    : V_MPEG4/ISO/AVC
    Duration                    : 1 h 18 min
    Bit rate                    : 3 500 kb/s
    Width                       : 1 798 pixels
    Height                      : 1 080 pixels
    Display aspect ratio        : 5:3
    Frame rate mode             : Constant
    Frame rate                  : 23.976 (24000/1001) FPS
    Color space                 : YUV
    Chroma subsampling          : 4:2:0
    Bit depth                   : 8 bits
    Scan type                   : Progressive
    Bits/(Pixel*Frame)          : 0.075
    Stream size                 : 1.93 GiB (73%)
    Writing library             : x264 core 157 r2935 545de2f
    Encoding settings           : cabac=1 / ref=4 / deblock=1:0:0 / analyse=0x3:0x113 / me=hex / subme=8 / psy=1 / psy_rd=1.00:0.00 / mixed_ref=1 / me_range=16 / chroma_me=1 / trellis=2 / 8x8dct=1 / cqm=0 / deadzone=21,11 / fast_pskip=1 / chroma_qp_offset=-2 / threads=24 / lookahead_threads=4 / sliced_threads=0 / nr=0 / decimate=1 / interlaced=0 / bluray_compat=0 / constrained_intra=0 / bframes=3 / b_pyramid=2 / b_adapt=1 / b_bias=0 / direct=3 / weightb=1 / open_gop=0 / weightp=2 / keyint=240 / keyint_min=24 / scenecut=40 / intra_refresh=0 / rc_lookahead=50 / rc=abr / mbtree=1 / bitrate=3500 / ratetol=1.0 / qcomp=0.60 / qpmin=0 / qpmax=69 / qpstep=4 / vbv_maxrate=62500 / vbv_bufsize=78125 / nal_hrd=none / filler=0 / ip_ratio=1.40 / aq=1:1.00
    Default                     : Yes
    Forced                      : No
    Color range                 : Limited
    Color primaries             : BT.709
    Transfer characteristics    : BT.709
    Matrix coefficients         : BT.709

    Audio #1
    ID                          : 2
    Format                      : AC-3
    Format/Info                 : Audio Coding 3
    Commercial name             : Dolby Digital
    Codec ID                    : A_AC3
    Duration                    : 1 h 18 min
    Bit rate mode               : Constant
    Bit rate                    : 640 kb/s
    Channel(s)                  : 6 channels
    Channel layout              : L R C LFE Ls Rs
    Sampling rate               : 48.0 kHz
    Frame rate                  : 31.250 FPS (1536 SPF)
    Compression mode            : Lossy
    Delay relative to video     : -5 ms
    Stream size                 : 359 MiB (13%)
    Language                    : Spanish
    Service kind                : Complete Main
    Default                     : Yes
    Forced                      : No

    Audio #2
    ID                          : 3
    Format                      : AC-3
    Format/Info                 : Audio Coding 3
    Commercial name             : Dolby Digital
    Codec ID                    : A_AC3
    Duration                    : 1 h 18 min
    Bit rate mode               : Constant
    Bit rate                    : 640 kb/s
    Channel(s)                  : 6 channels
    Channel layout              : L R C LFE Ls Rs
    Sampling rate               : 48.0 kHz
    Frame rate                  : 31.250 FPS (1536 SPF)
    Compression mode            : Lossy
    Delay relative to video     : -5 ms
    Stream size                 : 359 MiB (13%)
    Language                    : English
    Service kind                : Complete Main
    Default                     : No
    Forced                      : No

    Text #1
    ID                          : 4
    Format                      : UTF-8
    Codec ID                    : S_TEXT/UTF8
    Codec ID/Info               : UTF-8 Plain Text
    Duration                    : 1 h 18 min
    Bit rate                    : 50 b/s
    Count of elements           : 1020
    Stream size                 : 29.1 KiB (0%)
    Language                    : Spanish
    Default                     : No
    Forced                      : No

    Text #2
    ID                          : 5
    Format                      : UTF-8
    Codec ID                    : S_TEXT/UTF8
    Codec ID/Info               : UTF-8 Plain Text
    Duration                    : 1 h 6 min
    Bit rate                    : 0 b/s
    Count of elements           : 5
    Stream size                 : 68.0 Bytes (0%)
    Title                       : Forzados
    Language                    : Spanish
    Default                     : Yes
    Forced                      : No

    Menu
    00:00:00.000                : :Chapter 1
    00:03:46.560                : :Chapter 2
    00:07:14.893                : :Chapter 3
    00:12:14.943                : :Chapter 4
    00:16:50.551                : :Chapter 5
    00:21:53.604                : :Chapter 6
    00:26:12.905                : :Chapter 7
    00:32:27.737                : :Chapter 8
    00:35:26.416                : :Chapter 9
    00:38:14.125                : :Chapter 10
    00:42:14.157                : :Chapter 11
    00:48:00.711                : :Chapter 12
    00:49:02.690                : :Chapter 13
    00:55:36.291                : :Chapter 14
    00:58:07.859                : :Chapter 15
    01:02:28.536                : :Chapter 16
    01:06:25.315                : :Chapter 17
    01:10:05.410                : :Chapter 18
    01:12:33.850                : :Chapter 19
    01:15:25.938                : :Chapter 20

  • Peso: 2.63 GiB

Sinopsis

1910. En París una anciana millonaria y excéntrica lleva una vida feliz con sus gatos en su enorme mansión, con la única ayuda de su fiel mayordomo Edgar. Allí, Duquesa vive despreocupadamente con sus tres traviesos cachorros, sin saber que Edgar planea acabar con todos los gatos para convertirse en el único heredero de la enorme fortuna de la anciana Madame Bonfamille. Con este propósito, los abandona en un lugar remoto, pero quiere la suerte que se encuentren con Thomas O’Malley, un atractivo gato vagabundo y mundano. Desde el principio, O’Malley, atraído por la elegancia de Duquesa, se propone ayudarla a regresar a casa de Madame Bonfamille, aunque para ello tenga que enfrentarse con todos los peligros de la gran ciudad. Afortunadamente, contarán también con la ayuda de Scat Cat y sus gatos swing, que añaden un toque de ritmo y diversión a la vida de Duquesa y de los cachorros.

Ficha técnica

Video trailer de la película

Enlaces de descarga

Rip de Bluray

Descargar Los Aristogatos (1970) HD 1080p Latino – CMHDD




Aportes de DPeliculasHDmega la pass es:dpeliculashdmega.org Aportes de CinemaniaHD la pass es:cinemaniahdd.com
Guardado en : Animación , Aventura , Comedia , Familia , HD 1080p

Películas relacionadas

  • Mi amigo el dragón (2016) Full HD 1080p Latino

    Mi amigo el dragón (2016) Full HD 1080p Latino

    2016
    Mi amigo el dragón (2016) Full HD 1080p Latino

    1h 43m 2016

    Descargar Mi amigo el dragón (2016) Full HD 1080p Latino. Durante años el Sr. Meacham, un viejo tallador...

    Director: Joe Nolan

    Género: Aventura

    Actores: William J. Rawbone

  • Mi amigo el dragón (2016) REMUX 1080p Latino

    Mi amigo el dragón (2016) REMUX 1080p Latino

    2016
    Mi amigo el dragón (2016) REMUX 1080p Latino

    1h 43m 2016

    Descargar Mi amigo el dragón (2016) REMUX 1080p Latino. Durante años el Sr. Meacham, un viejo tallador...

    Director: Joe Nolan

    Género: Aventura

    Actores: William J. Rawbone

  • El discurso del Rey (2010) 1080p Latino

    El discurso del Rey (2010) 1080p Latino

    2010
    El discurso del Rey (2010) 1080p Latino

    1h 58m 2010

    Descargar El discurso del Rey (2010) 1080p Latino. El duque de York se convirtió en rey de Gran Bretaña...

    Director: Tom Hooper

    Género: Drama

    Actores: Tony Earnshaw

descargar Los Aristogatos (1970) HD 1080p Latino – CMHDD 1080p 1080p gratis, Los Aristogatos (1970) HD 1080p Latino – CMHDD 1080p mega 1 link, Los Aristogatos (1970) HD 1080p Latino – CMHDD 1080p pelicula completa, descargar Los Aristogatos (1970) HD 1080p Latino – CMHDD 1080p gratis en mega.

Los Aristogatos (1970) HD 1080p Latino – CMHDD pelicula full hd, Los Aristogatos (1970) HD 1080p Latino – CMHDD mega latino, Los Aristogatos (1970) HD 1080p Latino – CMHDD 4k latino, Los Aristogatos (1970) HD 1080p Latino – CMHDD pelicula completa, Los Aristogatos (1970) HD 1080p Latino – CMHDD descargar gratis, descargar Los Aristogatos (1970) HD 1080p Latino – CMHDD pelicula latino, Los Aristogatos (1970) HD 1080p Latino – CMHDD 1 link mega, Los Aristogatos (1970) HD 1080p Latino – CMHDD 1 link google drive, Los Aristogatos (1970) HD 1080p Latino – CMHDD hd 1080p latino.
Comentarios 0