×

¿Problemas para descargar con Mozilla, EDGE? Deshabilita la opción "Abrir vinculos en una pestaña nueva" tal como lo muestra ésta imagen.

Los Aristogatos (1970) Full HD 1080p Latino – CMHDD

311 vistas

Información de Los Aristogatos (1970) Full HD 1080p Latino – CMHDD

Datos de la película

  • Calidad: Full 1080p
  • Audio: Español Latino DTS 5.1 BLURAY - Ingles DTS 5.1 BLURAY
  • Subtitulos: Español Latino SRT- FORZADOS SRT
  • Resolución: 1920x1080p
  • Formato: MKV
  • Codec: H.264
  • Encoder: Dracarys
  • Mediainfo: Clic para Mostrar Datos Ver
  • Format                      : Matroska
    Format version              : Version 4
    File size                   : 4.85 GiB
    Duration                    : 1 h 18 min
    Overall bit rate mode       : Variable
    Overall bit rate            : 8 855 kb/s
    Movie name                  : Los Aristogatos (1970) Full HD 1080p Latino - CMHDD
    Encoded date                : UTC 2020-07-01 05:31:40
    Writing application         : mkvmerge v46.0.0 ('No Deeper Escape') 64-bit
    Writing library             : libebml v1.3.10 + libmatroska v1.5.2

    Video
    ID                          : 1
    Format                      : AVC
    Format/Info                 : Advanced Video Codec
    Format profile              : High@L4.1
    Format settings             : CABAC / 4 Ref Frames
    Format settings, CABAC      : Yes
    Format settings, Reference  : 4 frames
    Codec ID                    : V_MPEG4/ISO/AVC
    Duration                    : 1 h 18 min
    Bit rate                    : 3 864 kb/s
    Width                       : 1 920 pixels
    Height                      : 1 080 pixels
    Display aspect ratio        : 16:9
    Frame rate mode             : Constant
    Frame rate                  : 23.976 (24000/1001) FPS
    Color space                 : YUV
    Chroma subsampling          : 4:2:0
    Bit depth                   : 8 bits
    Scan type                   : Progressive
    Bits/(Pixel*Frame)          : 0.078
    Stream size                 : 2.12 GiB (44%)
    Writing library             : x264 core 157 r2935 545de2f
    Encoding settings           : cabac=1 / ref=4 / deblock=1:0:0 / analyse=0x3:0x133 / me=tesa / subme=11 / psy=1 / psy_rd=1.00:0.00 / mixed_ref=1 / me_range=24 / chroma_me=1 / trellis=2 / 8x8dct=1 / cqm=0 / deadzone=21,11 / fast_pskip=0 / chroma_qp_offset=-2 / threads=24 / lookahead_threads=6 / sliced_threads=0 / nr=0 / decimate=1 / interlaced=0 / bluray_compat=0 / constrained_intra=0 / bframes=16 / b_pyramid=2 / b_adapt=2 / b_bias=0 / direct=3 / weightb=1 / open_gop=0 / weightp=2 / keyint=240 / keyint_min=24 / scenecut=40 / intra_refresh=0 / rc_lookahead=60 / rc=crf / mbtree=1 / crf=20.0 / qcomp=0.60 / qpmin=0 / qpmax=69 / qpstep=4 / vbv_maxrate=62500 / vbv_bufsize=78125 / crf_max=0.0 / nal_hrd=none / filler=0 / ip_ratio=1.40 / aq=1:1.00
    Default                     : Yes
    Forced                      : No
    Color range                 : Limited
    Color primaries             : BT.709
    Transfer characteristics    : BT.709
    Matrix coefficients         : BT.709

    Audio #1
    ID                          : 2
    Format                      : DTS
    Format/Info                 : Digital Theater Systems
    Codec ID                    : A_DTS
    Duration                    : 1 h 18 min
    Bit rate mode               : Constant
    Bit rate                    : 1 509 kb/s
    Channel(s)                  : 6 channels
    Channel layout              : C L R Ls Rs LFE
    Sampling rate               : 48.0 kHz
    Frame rate                  : 93.750 FPS (512 SPF)
    Bit depth                   : 24 bits
    Compression mode            : Lossy
    Stream size                 : 847 MiB (17%)
    Language                    : Spanish
    Default                     : Yes
    Forced                      : No

    Audio #2
    ID                          : 3
    Format                      : DTS XLL
    Format/Info                 : Digital Theater Systems
    Commercial name             : DTS-HD Master Audio
    Codec ID                    : A_DTS
    Duration                    : 1 h 18 min
    Bit rate mode               : Variable
    Bit rate                    : 3 467 kb/s
    Channel(s)                  : 6 channels
    Channel layout              : C L R Ls Rs LFE
    Sampling rate               : 48.0 kHz
    Frame rate                  : 93.750 FPS (512 SPF)
    Bit depth                   : 24 bits
    Compression mode            : Lossless
    Stream size                 : 1.90 GiB (39%)
    Language                    : English
    Default                     : No
    Forced                      : No

    Text #1
    ID                          : 4
    Format                      : UTF-8
    Codec ID                    : S_TEXT/UTF8
    Codec ID/Info               : UTF-8 Plain Text
    Duration                    : 1 h 18 min
    Bit rate                    : 50 b/s
    Count of elements           : 1020
    Stream size                 : 29.1 KiB (0%)
    Language                    : Spanish
    Default                     : No
    Forced                      : No

    Text #2
    ID                          : 5
    Format                      : UTF-8
    Codec ID                    : S_TEXT/UTF8
    Codec ID/Info               : UTF-8 Plain Text
    Duration                    : 1 h 6 min
    Bit rate                    : 0 b/s
    Count of elements           : 5
    Stream size                 : 68.0 Bytes (0%)
    Title                       : Forzados
    Language                    : Spanish
    Default                     : Yes
    Forced                      : No

    Text #3
    ID                          : 6
    Format                      : PGS
    Muxing mode                 : zlib
    Codec ID                    : S_HDMV/PGS
    Codec ID/Info               : Picture based subtitle format used on BDs/HD-DVDs
    Duration                    : 1 h 18 min
    Bit rate                    : 31.5 kb/s
    Count of elements           : 2040
    Stream size                 : 17.6 MiB (0%)
    Language                    : Spanish
    Default                     : No
    Forced                      : No

    Text #4
    ID                          : 7
    Format                      : PGS
    Muxing mode                 : zlib
    Codec ID                    : S_HDMV/PGS
    Codec ID/Info               : Picture based subtitle format used on BDs/HD-DVDs
    Duration                    : 1 h 6 min
    Bit rate                    : 121 b/s
    Count of elements           : 10
    Stream size                 : 59.0 KiB (0%)
    Language                    : Spanish
    Default                     : No
    Forced                      : No

    Menu
    00:00:00.000                : :Chapter 1
    00:03:46.560                : :Chapter 2
    00:07:14.893                : :Chapter 3
    00:12:14.943                : :Chapter 4
    00:16:50.551                : :Chapter 5
    00:21:53.604                : :Chapter 6
    00:26:12.905                : :Chapter 7
    00:32:27.737                : :Chapter 8
    00:35:26.416                : :Chapter 9
    00:38:14.125                : :Chapter 10
    00:42:14.157                : :Chapter 11
    00:48:00.711                : :Chapter 12
    00:49:02.690                : :Chapter 13
    00:55:36.291                : :Chapter 14
    00:58:07.859                : :Chapter 15
    01:02:28.536                : :Chapter 16
    01:06:25.315                : :Chapter 17
    01:10:05.410                : :Chapter 18
    01:12:33.850                : :Chapter 19
    01:15:25.938                : :Chapter 20

  • Peso: 4.85 GiB

Sinopsis

1910. En París una anciana millonaria y excéntrica lleva una vida feliz con sus gatos en su enorme mansión, con la única ayuda de su fiel mayordomo Edgar. Allí, Duquesa vive despreocupadamente con sus tres traviesos cachorros, sin saber que Edgar planea acabar con todos los gatos para convertirse en el único heredero de la enorme fortuna de la anciana Madame Bonfamille. Con este propósito, los abandona en un lugar remoto, pero quiere la suerte que se encuentren con Thomas O’Malley, un atractivo gato vagabundo y mundano. Desde el principio, O’Malley, atraído por la elegancia de Duquesa, se propone ayudarla a regresar a casa de Madame Bonfamille, aunque para ello tenga que enfrentarse con todos los peligros de la gran ciudad. Afortunadamente, contarán también con la ayuda de Scat Cat y sus gatos swing, que añaden un toque de ritmo y diversión a la vida de Duquesa y de los cachorros.

Ficha técnica

Video trailer de la película

Enlaces de descarga

Rip de Bluray

Descargar Los Aristogatos (1970) Full HD 1080p Latino – CMHDD




Aportes de DPeliculasHDmega la pass es:dpeliculashdmega.org Aportes de CinemaniaHD la pass es:cinemaniahdd.com

Películas relacionadas

descargar Los Aristogatos (1970) Full HD 1080p Latino – CMHDD Full 1080p 1080p gratis, Los Aristogatos (1970) Full HD 1080p Latino – CMHDD Full 1080p mega 1 link, Los Aristogatos (1970) Full HD 1080p Latino – CMHDD Full 1080p pelicula completa, descargar Los Aristogatos (1970) Full HD 1080p Latino – CMHDD Full 1080p gratis en mega.

Los Aristogatos (1970) Full HD 1080p Latino – CMHDD pelicula full hd, Los Aristogatos (1970) Full HD 1080p Latino – CMHDD mega latino, Los Aristogatos (1970) Full HD 1080p Latino – CMHDD 4k latino, Los Aristogatos (1970) Full HD 1080p Latino – CMHDD pelicula completa, Los Aristogatos (1970) Full HD 1080p Latino – CMHDD descargar gratis, descargar Los Aristogatos (1970) Full HD 1080p Latino – CMHDD pelicula latino, Los Aristogatos (1970) Full HD 1080p Latino – CMHDD 1 link mega, Los Aristogatos (1970) Full HD 1080p Latino – CMHDD 1 link google drive, Los Aristogatos (1970) Full HD 1080p Latino – CMHDD hd 1080p latino.
Comentarios 0