×

¿Problemas para descargar con Mozilla, EDGE? Deshabilita la opción "Abrir vinculos en una pestaña nueva" tal como lo muestra ésta imagen.

Los Ángeles de Charlie (2019) REMUX 1080p Latino

628 vistas

Información de Los Ángeles de Charlie (2019) REMUX 1080p Latino

Datos de la película

  • Calidad: Full 1080p
  • Audio: Español Latino AC3 5.1 BLURAY - Ingles DTS 5.1 BLURAY
  • Subtitulos: Español Latino PGS - Ingles PGS
  • Resolución: 1920x1080p
  • Formato: MKV
  • Codec: H.264
  • Encoder: CinefiloCool
  • Mediainfo: Clic para Mostrar Datos Ver
  • Los Angeles de Charlie (2019) REMUX 1080p Latino-CMHDD.mkv
    Format                      : Matroska
    Format version              : Version 4
    File size                   : 23.1 GiB
    Duration                    : 1 h 58 min
    Overall bit rate mode       : Variable
    Overall bit rate            : 27.8 Mb/s
    Movie name                  : Charlie's Angels (2019) CinemaniaHDD.Net
    Encoded date                : UTC 2020-03-05 23:35:31
    Writing application         : mkvmerge v42.0.0 ('Overtime') 64-bit
    Writing library             : libebml v1.3.10 + libmatroska v1.5.2
    Attachments                 : CINEMANIAHD.png

    Video
    ID                          : 1
    Format                      : AVC
    Format/Info                 : Advanced Video Codec
    Format profile              : High@L4.1
    Format settings             : CABAC / 2 Ref Frames
    Format settings, CABAC      : Yes
    Format settings, ReFrames   : 2 frames
    Format settings, GOP        : M=1, N=10
    Codec ID                    : V_MPEG4/ISO/AVC
    Duration                    : 1 h 58 min
    Bit rate mode               : Variable
    Bit rate                    : 24.9 Mb/s
    Width                       : 1 920 pixels
    Height                      : 1 080 pixels
    Display aspect ratio        : 16:9
    Frame rate mode             : Constant
    Frame rate                  : 23.976 (24000/1001) FPS
    Color space                 : YUV
    Chroma subsampling          : 4:2:0
    Bit depth                   : 8 bits
    Scan type                   : Progressive
    Bits/(Pixel*Frame)          : 0.500
    Stream size                 : 20.6 GiB (89%)
    Title                       : Full HD1080p [REMUX]
    Default                     : Yes
    Forced                      : Yes

    Audio #1
    ID                          : 2
    Format                      : AC-3
    Format/Info                 : Audio Coding 3
    Commercial name             : Dolby Digital
    Codec ID                    : A_AC3
    Duration                    : 1 h 58 min
    Bit rate mode               : Constant
    Bit rate                    : 640 kb/s
    Channel(s)                  : 6 channels
    Channel layout              : L R C LFE Ls Rs
    Sampling rate               : 48.0 kHz
    Frame rate                  : 31.250 FPS (1536 SPF)
    Bit depth                   : 16 bits
    Compression mode            : Lossy
    Delay relative to video     : 24 ms
    Stream size                 : 543 MiB (2%)
    Title                       : AC3_5.1_Bluray_Esp
    Language                    : Spanish
    Service kind                : Complete Main
    Default                     : Yes
    Forced                      : Yes

    Audio #2
    ID                          : 3
    Format                      : DTS XLL
    Format/Info                 : Digital Theater Systems
    Commercial name             : DTS-HD Master Audio
    Codec ID                    : A_DTS
    Duration                    : 1 h 58 min
    Bit rate mode               : Variable
    Bit rate                    : 2 301 kb/s
    Channel(s)                  : 6 channels
    Channel layout              : C L R Ls Rs LFE
    Sampling rate               : 48.0 kHz
    Frame rate                  : 93.750 FPS (512 SPF)
    Bit depth                   : 16 bits
    Compression mode            : Lossless
    Stream size                 : 1.91 GiB (8%)
    Title                       : DTS-HD_5.1_Bluray_Eng
    Language                    : English
    Default                     : No
    Forced                      : No

    Text #1
    ID                          : 4
    Format                      : PGS
    Muxing mode                 : zlib
    Codec ID                    : S_HDMV/PGS
    Codec ID/Info               : Picture based subtitle format used on BDs/HD-DVDs
    Duration                    : 1 h 55 min
    Bit rate                    : 602 b/s
    Count of elements           : 58
    Stream size                 : 509 KiB (0%)
    Title                       : Sub_Forzados [PGS]
    Language                    : Spanish
    Default                     : Yes
    Forced                      : Yes

    Text #2
    ID                          : 5
    Format                      : PGS
    Muxing mode                 : zlib
    Codec ID                    : S_HDMV/PGS
    Codec ID/Info               : Picture based subtitle format used on BDs/HD-DVDs
    Duration                    : 1 h 58 min
    Bit rate                    : 33.6 kb/s
    Count of elements           : 3242
    Stream size                 : 28.5 MiB (0%)
    Title                       : Sub_Esp [PGS]
    Language                    : Spanish
    Default                     : No
    Forced                      : No

    Text #3
    ID                          : 6
    Format                      : PGS
    Muxing mode                 : zlib
    Codec ID                    : S_HDMV/PGS
    Codec ID/Info               : Picture based subtitle format used on BDs/HD-DVDs
    Duration                    : 1 h 53 min
    Bit rate                    : 36.3 kb/s
    Count of elements           : 3208
    Stream size                 : 29.5 MiB (0%)
    Title                       : Sub_Eng [PGS]
    Language                    : English
    Default                     : No
    Forced                      : No

    Text #4
    ID                          : 7
    Format                      : UTF-8
    Codec ID                    : S_TEXT/UTF8
    Codec ID/Info               : UTF-8 Plain Text
    Duration                    : 1 h 55 min
    Bit rate                    : 0 b/s
    Count of elements           : 29
    Stream size                 : 701 Bytes (0%)
    Title                       : Sub_Forzados
    Language                    : Spanish
    Default                     : No
    Forced                      : No

    Text #5
    ID                          : 8
    Format                      : UTF-8
    Codec ID                    : S_TEXT/UTF8
    Codec ID/Info               : UTF-8 Plain Text
    Duration                    : 1 h 52 min
    Bit rate                    : 57 b/s
    Count of elements           : 1618
    Stream size                 : 47.4 KiB (0%)
    Title                       : Sub_Esp
    Language                    : Spanish
    Default                     : No
    Forced                      : No

    Menu
    00:00:00.000                : en:Chapter 01
    00:10:26.625                : en:Chapter 02
    00:16:50.551                : en:Chapter 03
    00:26:28.753                : en:Chapter 04
    00:31:52.785                : en:Chapter 05
    00:37:36.087                : en:Chapter 06
    00:43:55.883                : en:Chapter 07
    00:46:39.254                : en:Chapter 08
    00:51:26.541                : en:Chapter 09
    00:55:10.265                : en:Chapter 10
    01:03:48.699                : en:Chapter 11
    01:11:24.196                : en:Chapter 12
    01:20:14.851                : en:Chapter 13
    01:30:47.567                : en:Chapter 14
    01:40:31.650                : en:Chapter 15
    01:45:24.109                : en:Chapter 16

  • Peso: 23.1 GiB

Sinopsis

Descargar Los Ángeles de Charlie (2019) REMUX 1080p Latino. Los ángeles de Charlie siempre han proporcionado servicios de seguridad e investigación a clientes privados, y ahora la agencia Townsend se ha expandido internacionalmente con las mujeres más inteligentes, valientes y mejor entrenadas a lo largo y ancho del planeta – varios equipos de ángeles guiados por otros tantos Bosleys llevando a cabo los trabajos más duros por todo el mundo. Cuando un joven ingeniero de sistemas llama la atención sobre una peligrosa tecnología, los ángeles son llamados a la acción, arriesgando sus vidas por protegernos a todos.

Ficha técnica

Video trailer de la película

Enlaces de descarga

Rip de Bluray

Descargar Los Ángeles de Charlie (2019) REMUX 1080p Latino




Aportes de DPeliculasHDmega la pass es:dpeliculashdmega.org Aportes de CinemaniaHD la pass es:cinemaniahdd.com
Guardado en : Acción , Aventura , Comedia , Remux

Películas relacionadas

descargar Los Ángeles de Charlie (2019) REMUX 1080p Latino Full 1080p 1080p gratis, Los Ángeles de Charlie (2019) REMUX 1080p Latino Full 1080p mega 1 link, Los Ángeles de Charlie (2019) REMUX 1080p Latino Full 1080p pelicula completa, descargar Los Ángeles de Charlie (2019) REMUX 1080p Latino Full 1080p gratis en mega.

Los Ángeles de Charlie (2019) REMUX 1080p Latino pelicula full hd, Los Ángeles de Charlie (2019) REMUX 1080p Latino mega latino, Los Ángeles de Charlie (2019) REMUX 1080p Latino 4k latino, Los Ángeles de Charlie (2019) REMUX 1080p Latino pelicula completa, Los Ángeles de Charlie (2019) REMUX 1080p Latino descargar gratis, descargar Los Ángeles de Charlie (2019) REMUX 1080p Latino pelicula latino, Los Ángeles de Charlie (2019) REMUX 1080p Latino 1 link mega, Los Ángeles de Charlie (2019) REMUX 1080p Latino 1 link google drive, Los Ángeles de Charlie (2019) REMUX 1080p Latino hd 1080p latino.
Comentarios 1
  • ocpgaiden - 05 julio, 2020

    Gracias por el remux, saludos