×

¿Problemas para descargar con Mozilla, EDGE? Deshabilita la opción "Abrir vinculos en una pestaña nueva" tal como lo muestra ésta imagen.

Los Ángeles de Charlie (2019) AMZN Web-DL 1080p Latino

1.663 vistas

Información de Los Ángeles de Charlie (2019) AMZN Web-DL 1080p Latino

Datos de la película

  • Calidad: WEBDL
  • Audio: Se especifica abajo de la Sinopsis
  • Subtitulos: Español Latino SRT - Ingles SRT
  • Resolución: 1920X800p
  • Formato: MKV
  • Codec: H.264
  • Encoder: CinemaniaHD
  • Mediainfo: Clic para Mostrar Datos Ver
  • Los ángeles de Charlie (2019) AMZN Web-DL 1080p Latino-CMHDD.mkv
    Format                      : Matroska
    Format version              : Version 4
    File size                   : 7.94 GiB
    Duration                    : 1 h 58 min
    Overall bit rate            : 9 596 kb/s
    Movie name                  : CinemaniaHDD.Net
    Encoded date                : UTC 2020-02-23 17:34:56
    Writing application         : mkvmerge v42.0.0 ('Overtime') 64-bit
    Writing library             : libebml v1.3.10 + libmatroska v1.5.2
    Attachments                 : CINEMANIAHD.png

    Video
    ID                          : 1
    Format                      : AVC
    Format/Info                 : Advanced Video Codec
    Format profile              : High@L4
    Format settings             : CABAC / 4 Ref Frames
    Format settings, CABAC      : Yes
    Format settings, ReFrames   : 4 frames
    Codec ID                    : V_MPEG4/ISO/AVC
    Duration                    : 1 h 58 min
    Bit rate mode               : Constant
    Bit rate                    : 8 761 kb/s
    Nominal bit rate            : 10 000 kb/s
    Width                       : 1 920 pixels
    Height                      : 800 pixels
    Display aspect ratio        : 2.40:1
    Frame rate mode             : Constant
    Frame rate                  : 23.976 (24000/1001) FPS
    Color space                 : YUV
    Chroma subsampling          : 4:2:0
    Bit depth                   : 8 bits
    Scan type                   : Progressive
    Bits/(Pixel*Frame)          : 0.238
    Stream size                 : 7.25 GiB (91%)
    Title                       : HD1080p [Web]
    Default                     : Yes
    Forced                      : Yes
    Color range                 : Limited
    Color primaries             : BT.709
    Transfer characteristics    : BT.709
    Matrix coefficients         : BT.709

    Audio #1
    ID                          : 2
    Format                      : AC-3
    Format/Info                 : Audio Coding 3
    Commercial name             : Dolby Digital
    Codec ID                    : A_AC3
    Duration                    : 1 h 58 min
    Bit rate mode               : Constant
    Bit rate                    : 192 kb/s
    Channel(s)                  : 2 channels
    Channel layout              : L R
    Sampling rate               : 48.0 kHz
    Frame rate                  : 31.250 FPS (1536 SPF)
    Bit depth                   : 16 bits
    Compression mode            : Lossy
    Stream size                 : 163 MiB (2%)
    Title                       : AC3_2.0_Web_Esp
    Language                    : Spanish
    Service kind                : Complete Main
    Default                     : Yes
    Forced                      : Yes

    Audio #2
    ID                          : 3
    Format                      : E-AC-3
    Format/Info                 : Enhanced AC-3
    Commercial name             : Dolby Digital Plus
    Codec ID                    : A_EAC3
    Duration                    : 1 h 58 min
    Bit rate mode               : Constant
    Bit rate                    : 640 kb/s
    Channel(s)                  : 6 channels
    Channel layout              : L R C LFE Ls Rs
    Sampling rate               : 48.0 kHz
    Frame rate                  : 31.250 FPS (1536 SPF)
    Compression mode            : Lossy
    Stream size                 : 542 MiB (7%)
    Title                       : DDP_5.1_Web_Eng
    Language                    : English
    Service kind                : Complete Main
    Default                     : No
    Forced                      : No

    Text #1
    ID                          : 4
    Format                      : UTF-8
    Codec ID                    : S_TEXT/UTF8
    Codec ID/Info               : UTF-8 Plain Text
    Duration                    : 1 h 52 min
    Bit rate                    : 57 b/s
    Count of elements           : 1618
    Stream size                 : 47.4 KiB (0%)
    Title                       : Sub_Esp
    Language                    : Spanish
    Default                     : No
    Forced                      : No

    Text #2
    ID                          : 5
    Format                      : UTF-8
    Codec ID                    : S_TEXT/UTF8
    Codec ID/Info               : UTF-8 Plain Text
    Duration                    : 1 h 52 min
    Bit rate                    : 62 b/s
    Count of elements           : 1743
    Stream size                 : 51.4 KiB (0%)
    Title                       : Sub_Eng
    Language                    : English
    Default                     : No
    Forced                      : No

    Menu
    00:00:00.000                : en:Studio Logos
    00:00:36.000                : en:Women deserve all the same opportunities
    00:06:32.000                : en:A meeting with Elena's boss
    00:10:26.000                : en:Bosley's retirement
    00:13:56.000                : en:Power demonstration
    00:16:43.000                : en:A new assignment
    00:26:22.000                : en:Regrouping
    00:31:51.000                : en:Gathering intel
    00:43:54.000                : en:A plan to retrieve Calisto
    00:51:22.000                : en:Preparing for the mission
    00:54:57.000                : en:Arriving in Instanbul
    01:01:17.000                : en:A day at the races
    01:08:36.000                : en:A meeting with the buyer
    01:20:13.000                : en:Something isn't right
    01:30:46.000                : en:Crashing a party
    01:42:20.000                : en:Send the love
    01:48:31.000                : en:End Credits

  • Peso: 7.94 GiB

Sinopsis

Descargar Los Ángeles de Charlie (2019) AMZN Web-DL 1080p Latino. Los ángeles de Charlie siempre han proporcionado servicios de seguridad e investigación a clientes privados, y ahora la agencia Townsend se ha expandido internacionalmente con las mujeres más inteligentes, valientes y mejor entrenadas a lo largo y ancho del planeta – varios equipos de ángeles guiados por otros tantos Bosleys llevando a cabo los trabajos más duros por todo el mundo. Cuando un joven ingeniero de sistemas llama la atención sobre una peligrosa tecnología, los ángeles son llamados a la acción, arriesgando sus vidas por protegernos a todos.

Audio Español Latino AC3 2.0 Itunes – Ingles EAC3 5.1 Amazon

Ficha técnica

Video trailer de la película

Enlaces de descarga

Rip de Bluray

Descargar Los Ángeles de Charlie (2019) AMZN Web-DL 1080p Latino




Aportes de DPeliculasHDmega la pass es:dpeliculashdmega.org Aportes de CinemaniaHD la pass es:cinemaniahdd.com
Guardado en : Acción , Aventura , Comedia

Películas relacionadas

  • DC Liga De Supermascotas (2022) HD 1080p Latino

    DC Liga De Supermascotas (2022) HD 1080p Latino

    2022
    DC Liga De Supermascotas (2022) HD 1080p Latino

    1h 45m 2022

    Descargar DC Liga De Supermascotas (2022) HD 1080p Latino. Krypto el Superperro y Superman son amigos...

    Director: Sam Levine

    Género: Acción

    Actores: Yvette Nicole Brown

  • Rick and Morty (2022) Temporada 6 WEB-DL 1080p Latino

    Rick and Morty (2022) Temporada 6 WEB-DL 1080p Latino

    2013
    Rick and Morty (2022) Temporada 6 WEB-DL 1080p Latino

    0h 22m 2013

    Comedia animada que narra las aventuras de un científico loco Rick Sánchez, que regresa después de...

    Director: Justin Roiland

    Género: Action & Adventure

    Actores: Spencer Grammer

  • Tremors (1990) REMUX 4K HDR Latino – CMHDD

    Tremors (1990) REMUX 4K HDR Latino – CMHDD

    1990
    Tremors (1990) REMUX 4K HDR Latino – CMHDD

    1h 35m 1990

    En Perfección, un pequeño pueblo al borde del desierto de Nevada, algo parece suceder debajo de la...

    Director: Susan Bierbaum

    Género: Acción

    Actores: Victor Wong

descargar Los Ángeles de Charlie (2019) AMZN Web-DL 1080p Latino WEBDL 1080p gratis, Los Ángeles de Charlie (2019) AMZN Web-DL 1080p Latino WEBDL mega 1 link, Los Ángeles de Charlie (2019) AMZN Web-DL 1080p Latino WEBDL pelicula completa, descargar Los Ángeles de Charlie (2019) AMZN Web-DL 1080p Latino WEBDL gratis en mega.

Los Ángeles de Charlie (2019) AMZN Web-DL 1080p Latino pelicula full hd, Los Ángeles de Charlie (2019) AMZN Web-DL 1080p Latino mega latino, Los Ángeles de Charlie (2019) AMZN Web-DL 1080p Latino 4k latino, Los Ángeles de Charlie (2019) AMZN Web-DL 1080p Latino pelicula completa, Los Ángeles de Charlie (2019) AMZN Web-DL 1080p Latino descargar gratis, descargar Los Ángeles de Charlie (2019) AMZN Web-DL 1080p Latino pelicula latino, Los Ángeles de Charlie (2019) AMZN Web-DL 1080p Latino 1 link mega, Los Ángeles de Charlie (2019) AMZN Web-DL 1080p Latino 1 link google drive, Los Ángeles de Charlie (2019) AMZN Web-DL 1080p Latino hd 1080p latino.
Comentarios 0