×

¿Problemas para descargar con Mozilla, EDGE? Deshabilita la opción "Abrir vinculos en una pestaña nueva" tal como lo muestra ésta imagen.

Los 800 (2020) REMUX 1080i Latino

49 vistas

Información de Los 800 (2020) REMUX 1080i Latino

Datos de la película

  • Calidad: Full 1080p
  • Audio: Se especifica abajo de la Sinopsis
  • Subtitulos: Español Latino SRT- FORZADOS SRT
  • Resolución: 1920x1080i
  • Formato: MKV
  • Codec: H.264
  • Encoder: Melkor
  • Mediainfo: Clic para Mostrar Datos Ver
  • Los 800 (2020) REMUX 1080i Latino.mkv
    Format                      : Matroska
    Format version              : Version 4
    File size                   : 36.8 GiB
    Duration                    : 2 h 22 min
    Overall bit rate mode       : Variable
    Overall bit rate            : 37.0 Mb/s
    Movie name                  : Eight Hundred (2020) CinemaniaHDD.Net
    Encoded date                : UTC 2022-10-12 21:04:33
    Writing application         : mkvmerge v56.1.0 ('My Friend') 64-bit
    Writing library             : libebml v1.4.2 + libmatroska v1.6.4
    Attachments                 : CINEMANIAHD.png

    Video
    ID                          : 1
    Format                      : AVC
    Format/Info                 : Advanced Video Codec
    Format profile              : High@L4.1
    Format settings             : CABAC / 4 Ref Frames
    Format settings, CABAC      : Yes
    Format settings, Reference  : 4 frames
    Codec ID                    : V_MPEG4/ISO/AVC
    Duration                    : 2 h 22 min
    Bit rate mode               : Constant
    Bit rate                    : 34.0 Mb/s
    Width                       : 1 920 pixels
    Height                      : 1 080 pixels
    Display aspect ratio        : 16:9
    Frame rate mode             : Constant
    Frame rate                  : 25.000 FPS
    Standard                    : PAL
    Color space                 : YUV
    Chroma subsampling          : 4:2:0
    Bit depth                   : 8 bits
    Scan type                   : MBAFF
    Scan type, store method     : Interleaved fields
    Scan order                  : Top Field First
    Bits/(Pixel*Frame)          : 0.656
    Stream size                 : 32.7 GiB (89%)
    Title                       : REMUX HD1080i [CinemaniaHDD]
    Default                     : Yes
    Forced                      : Yes
    Color range                 : Limited
    Color primaries             : BT.709
    Transfer characteristics    : BT.709
    Matrix coefficients         : BT.709

    Audio #1
    ID                          : 2
    Format                      : AC-3
    Format/Info                 : Audio Coding 3
    Commercial name             : Dolby Digital
    Codec ID                    : A_AC3
    Duration                    : 2 h 22 min
    Bit rate mode               : Constant
    Bit rate                    : 256 kb/s
    Channel(s)                  : 2 channels
    Channel layout              : L R
    Sampling rate               : 48.0 kHz
    Frame rate                  : 31.250 FPS (1536 SPF)
    Compression mode            : Lossy
    Stream size                 : 261 MiB (1%)
    Title                       : Español Latino [CinemaniaHDD]
    Language                    : Spanish
    Service kind                : Complete Main
    Default                     : Yes
    Forced                      : Yes

    Audio #2
    ID                          : 3
    Format                      : MLP FBA
    Format/Info                 : Meridian Lossless Packing FBA
    Commercial name             : Dolby TrueHD
    Codec ID                    : A_TRUEHD
    Duration                    : 2 h 22 min
    Bit rate mode               : Variable
    Bit rate                    : 3 137 kb/s
    Maximum bit rate            : 5 838 kb/s
    Channel(s)                  : 6 channels
    Channel layout              : L R C LFE Ls Rs
    Sampling rate               : 96.0 kHz
    Frame rate                  : 1 200.000 FPS (80 SPF)
    Compression mode            : Lossless
    Stream size                 : 3.12 GiB (8%)
    Title                       : Chino [CinemaniaHDD]
    Language                    : Chinese
    Default                     : No
    Forced                      : No

    Audio #3
    ID                          : 4
    Format                      : AC-3
    Format/Info                 : Audio Coding 3
    Commercial name             : Dolby Digital
    Codec ID                    : A_AC3
    Duration                    : 2 h 22 min
    Bit rate mode               : Constant
    Bit rate                    : 640 kb/s
    Channel(s)                  : 6 channels
    Channel layout              : L R C LFE Ls Rs
    Sampling rate               : 48.0 kHz
    Frame rate                  : 31.250 FPS (1536 SPF)
    Compression mode            : Lossy
    Stream size                 : 653 MiB (2%)
    Title                       : Chino AC3 [CinemaniaHDD]
    Language                    : Chinese
    Service kind                : Complete Main
    Default                     : No
    Forced                      : No

    Text #1
    ID                          : 5
    Format                      : UTF-8
    Codec ID                    : S_TEXT/UTF8
    Codec ID/Info               : UTF-8 Plain Text
    Duration                    : 2 h 16 min
    Bit rate                    : 2 b/s
    Count of elements           : 57
    Stream size                 : 2.02 KiB (0%)
    Title                       : Forzados-SRT [CinemaniaHDD]
    Language                    : Spanish
    Default                     : Yes
    Forced                      : Yes

    Text #2
    ID                          : 6
    Format                      : UTF-8
    Codec ID                    : S_TEXT/UTF8
    Codec ID/Info               : UTF-8 Plain Text
    Duration                    : 2 h 16 min
    Bit rate                    : 59 b/s
    Count of elements           : 2157
    Stream size                 : 59.3 KiB (0%)
    Title                       : Español-SRT [CinemaniaHDD]
    Language                    : Spanish
    Default                     : No
    Forced                      : No

    Text #3
    ID                          : 7
    Format                      : PGS
    Muxing mode                 : zlib
    Codec ID                    : S_HDMV/PGS
    Codec ID/Info               : Picture based subtitle format used on BDs/HD-DVDs
    Duration                    : 2 h 13 min
    Bit rate                    : 32.2 kb/s
    Count of elements           : 3746
    Stream size                 : 30.8 MiB (0%)
    Title                       : Chino-PGS [CinemaniaHDD]
    Language                    : Chinese
    Default                     : No
    Forced                      : No

    Text #4
    ID                          : 8
    Format                      : PGS
    Muxing mode                 : zlib
    Codec ID                    : S_HDMV/PGS
    Codec ID/Info               : Picture based subtitle format used on BDs/HD-DVDs
    Duration                    : 2 h 13 min
    Bit rate                    : 41.7 kb/s
    Count of elements           : 3523
    Stream size                 : 39.8 MiB (0%)
    Title                       : Ingles-PGS [CinemaniaHDD]
    Language                    : English
    Default                     : No
    Forced                      : No

    Menu
    00:00:00.000                : Chapter 01
    00:11:01.080                : Chapter 02
    00:20:08.760                : Chapter 03
    00:33:58.920                : Chapter 04
    00:47:59.040                : Chapter 05
    01:00:16.840                : Chapter 06
    01:11:53.280                : Chapter 07
    01:23:56.720                : Chapter 08
    01:38:58.480                : Chapter 09
    01:46:18.520                : Chapter 10
    02:00:58.560                : Chapter 11
    02:10:37.400                : Chapter 12

  • Peso: 36.8 GiB

Sinopsis

Descargar Los 800 (2020) REMUX 1080i Latino. En 1937, ochocientos soldados chinos luchan bajo el asedio en Shanghai, desde un almacén en medio del campo de batalla, completamente rodeados por el ejército japonés.

Español Latino AC3 2.0 Web – Chino TrueHD & AC3 5.1 BD

Nota: Disponible Solo Para VIP!!!
Nota: El source es un Bluray con barrido entrelazado (1080i)

Ficha técnica

Video trailer de la película

Enlaces de descarga

Rip de Bluray

Descargar Los 800 (2020) REMUX 1080i Latino


Aportes de DPeliculasHDmega la pass es:dpeliculashdmega.org Aportes de CinemaniaHD la pass es:cinemaniahdd.com
Guardado en : Acción , Bélica , Drama , Historia , Remux

Películas relacionadas

descargar Los 800 (2020) REMUX 1080i Latino Full 1080p 1080p gratis, Los 800 (2020) REMUX 1080i Latino Full 1080p mega 1 link, Los 800 (2020) REMUX 1080i Latino Full 1080p pelicula completa, descargar Los 800 (2020) REMUX 1080i Latino Full 1080p gratis en mega.

Los 800 (2020) REMUX 1080i Latino pelicula full hd, Los 800 (2020) REMUX 1080i Latino mega latino, Los 800 (2020) REMUX 1080i Latino 4k latino, Los 800 (2020) REMUX 1080i Latino pelicula completa, Los 800 (2020) REMUX 1080i Latino descargar gratis, descargar Los 800 (2020) REMUX 1080i Latino pelicula latino, Los 800 (2020) REMUX 1080i Latino 1 link mega, Los 800 (2020) REMUX 1080i Latino 1 link google drive, Los 800 (2020) REMUX 1080i Latino hd 1080p latino.
Comentarios 0