×

¿Problemas para descargar con Mozilla, EDGE? Deshabilita la opción "Abrir vinculos en una pestaña nueva" tal como lo muestra ésta imagen.

Los 8 más Odiados (2015) [Multi-Doblaje] PLACEBO 1080p Latino

1.539 vistas

Información de Los 8 más Odiados (2015) [Multi-Doblaje] PLACEBO 1080p Latino

placebo

Datos de la película

  • Calidad: Full 1080p
  • Audio: Se especifica abajo de la Sinopsis
  • Subtitulos: Español Latino PGS - Ingles PGS
  • Resolución: 1920x1080
  • Formato: MKV
  • Codec: H.264
  • Encoder: cinemaniahdd
  • Mediainfo: Clic para Mostrar Datos Ver
  • Los 8 más Odiados (2015) PLACEBO 1080p Latino.mkv
    Format                      : Matroska
    Format version              : Version 4
    File size                   : 5.97 GiB
    Duration                    : 2 h 47 min
    Overall bit rate            : 5 097 kb/s
    Movie name                  : Los 8 más Odiados (2015) - CinemaniaHDD.Net
    Encoded date                : UTC 2019-09-13 19:31:14
    Writing application         : mkvmerge v35.0.0 ('All The Love In The World') 64-bit
    Writing library             : libebml v1.3.9 + libmatroska v1.5.2

    Video
    ID                          : 1
    Format                      : AVC
    Format/Info                 : Advanced Video Codec
    Format profile              : High@L4.1
    Format settings             : CABAC / 4 Ref Frames
    Format settings, CABAC      : Yes
    Format settings, ReFrames   : 4 frames
    Codec ID                    : V_MPEG4/ISO/AVC
    Duration                    : 2 h 47 min
    Bit rate                    : 2 467 kb/s
    Width                       : 1 920 pixels
    Height                      : 1 080 pixels
    Display aspect ratio        : 16:9
    Frame rate mode             : Constant
    Frame rate                  : 23.976 (24000/1001) FPS
    Color space                 : YUV
    Chroma subsampling          : 4:2:0
    Bit depth                   : 8 bits
    Scan type                   : Progressive
    Bits/(Pixel*Frame)          : 0.050
    Stream size                 : 2.89 GiB (48%)
    Writing library             : x264 core 157 r2935 545de2f
    Encoding settings           : cabac=1 / ref=4 / deblock=1:0:0 / analyse=0x3:0x133 / me=tesa / subme=11 / psy=1 / psy_rd=1.00:0.00 / mixed_ref=1 / me_range=24 / chroma_me=1 / trellis=2 / 8x8dct=1 / cqm=0 / deadzone=21,11 / fast_pskip=0 / chroma_qp_offset=-2 / threads=34 / lookahead_threads=8 / sliced_threads=0 / nr=0 / decimate=1 / interlaced=0 / bluray_compat=0 / constrained_intra=0 / bframes=16 / b_pyramid=2 / b_adapt=2 / b_bias=0 / direct=3 / weightb=1 / open_gop=0 / weightp=2 / keyint=240 / keyint_min=24 / scenecut=40 / intra_refresh=0 / rc_lookahead=60 / rc=crf / mbtree=1 / crf=20.0 / qcomp=0.60 / qpmin=0 / qpmax=69 / qpstep=4 / vbv_maxrate=62500 / vbv_bufsize=78125 / crf_max=0.0 / nal_hrd=none / filler=0 / ip_ratio=1.40 / aq=1:1.00
    Default                     : Yes
    Forced                      : No
    Color range                 : Limited
    Color primaries             : BT.709
    Transfer characteristics    : BT.709
    Matrix coefficients         : BT.709

    Audio #1
    ID                          : 2
    Format                      : AC-3
    Format/Info                 : Audio Coding 3
    Commercial name             : Dolby Digital
    Codec ID                    : A_AC3
    Duration                    : 2 h 47 min
    Bit rate mode               : Constant
    Bit rate                    : 640 kb/s
    Channel(s)                  : 6 channels
    Channel layout              : L R C LFE Ls Rs
    Sampling rate               : 48.0 kHz
    Frame rate                  : 31.250 FPS (1536 SPF)
    Bit depth                   : 16 bits
    Compression mode            : Lossy
    Stream size                 : 767 MiB (13%)
    Title                       : Doblaje 1 [CinemaniaHDD]
    Language                    : Spanish
    Service kind                : Complete Main
    Default                     : Yes
    Forced                      : No

    Audio #2
    ID                          : 3
    Format                      : AC-3
    Format/Info                 : Audio Coding 3
    Commercial name             : Dolby Digital
    Codec ID                    : A_AC3
    Duration                    : 2 h 47 min
    Bit rate mode               : Constant
    Bit rate                    : 448 kb/s
    Channel(s)                  : 6 channels
    Channel layout              : L R C LFE Ls Rs
    Sampling rate               : 48.0 kHz
    Frame rate                  : 31.250 FPS (1536 SPF)
    Bit depth                   : 16 bits
    Compression mode            : Lossy
    Stream size                 : 538 MiB (9%)
    Title                       : Doblaje 2 [CinemaniaHDD]
    Language                    : Spanish
    Service kind                : Complete Main
    Default                     : No
    Forced                      : No

    Audio #3
    ID                          : 4
    Format                      : DTS
    Format/Info                 : Digital Theater Systems
    Codec ID                    : A_DTS
    Duration                    : 2 h 47 min
    Bit rate mode               : Constant
    Bit rate                    : 1 509 kb/s
    Channel(s)                  : 6 channels
    Channel layout              : C L R Ls Rs LFE
    Sampling rate               : 48.0 kHz
    Frame rate                  : 93.750 FPS (512 SPF)
    Bit depth                   : 24 bits
    Compression mode            : Lossy
    Stream size                 : 1.77 GiB (30%)
    Title                       : Ingles [CinemaniaHDD]
    Language                    : English
    Default                     : No
    Forced                      : No

    Text #1
    ID                          : 5
    Format                      : UTF-8
    Codec ID                    : S_TEXT/UTF8
    Codec ID/Info               : UTF-8 Plain Text
    Duration                    : 2 h 18 min
    Bit rate                    : 0 b/s
    Count of elements           : 13
    Stream size                 : 267 Bytes (0%)
    Title                       : Forzados [CinemaniaHDD]
    Language                    : Spanish
    Default                     : Yes
    Forced                      : Yes

    Text #2
    ID                          : 6
    Format                      : UTF-8
    Codec ID                    : S_TEXT/UTF8
    Codec ID/Info               : UTF-8 Plain Text
    Duration                    : 2 h 41 min
    Bit rate                    : 56 b/s
    Count of elements           : 2382
    Stream size                 : 67.1 KiB (0%)
    Title                       : Español latino [CinemaniaHDD]
    Language                    : Spanish
    Default                     : No
    Forced                      : No

    Text #3
    ID                          : 7
    Format                      : PGS
    Muxing mode                 : zlib
    Codec ID                    : S_HDMV/PGS
    Codec ID/Info               : Picture based subtitle format used on BDs/HD-DVDs
    Duration                    : 2 h 47 min
    Bit rate                    : 50.3 kb/s
    Count of elements           : 6090
    Stream size                 : 60.2 MiB (1%)
    Title                       : Ingles [CinemaniaHDD]
    Language                    : English
    Default                     : No
    Forced                      : No

    Text #4
    ID                          : 8
    Format                      : PGS
    Muxing mode                 : zlib
    Codec ID                    : S_HDMV/PGS
    Codec ID/Info               : Picture based subtitle format used on BDs/HD-DVDs
    Duration                    : 2 h 41 min
    Bit rate                    : 44.1 kb/s
    Count of elements           : 4460
    Stream size                 : 51.0 MiB (1%)
    Title                       : Español latino [CinemaniaHDD]
    Language                    : Spanish
    Default                     : No
    Forced                      : No

    Menu
    00:00:00.000                : en:Chapter 01
    00:04:33.523                : en:Chapter 02
    00:11:36.112                : en:Chapter 03
    00:22:01.361                : en:Chapter 04
    00:35:02.308                : en:Chapter 05
    00:43:31.900                : en:Chapter 06
    00:52:12.212                : en:Chapter 07
    00:59:04.499                : en:Chapter 08
    01:08:30.314                : en:Chapter 09
    01:16:10.857                : en:Chapter 10
    01:25:18.404                : en:Chapter 11
    01:35:06.492                : en:Chapter 12
    01:42:20.175                : en:Chapter 13
    01:50:33.335                : en:Chapter 14
    01:59:32.498                : en:Chapter 15
    02:06:43.053                : en:Chapter 16
    02:13:26.623                : en:Chapter 17
    02:19:59.724                : en:Chapter 18
    02:24:17.023                : en:Chapter 19
    02:34:08.113                : en:Chapter 20
    02:39:38.026                : en:Chapter 21
    02:43:22.751                : en:Chapter 22

     

  • Peso: 5.97 GiB

Sinopsis

Descargar Los 8 más Odiados (2015) PLACEBO 1080p Latino, Seis, ocho o doce años después de la Guerra de Secesión, una diligencia avanza a toda velocidad por el invernal paisaje de Wyoming. Los pasajeros, el cazarrecompensas John Ruth (Kurt Russell) y su fugitiva Daisy Domergue (Jennifer Jason Leigh), intentan llegar rápidamente al pueblo de Red Rock, donde Ruth, conocido en estos lares como “el Verdugo”, entregará a Domergue a la justicia. Por el camino, se encuentran con dos desconocidos: el mayor Marquis Warren (Samuel L. Jackson), un antiguo soldado negro de la Unión convertido en cazarrecompensas de mala reputación, y Chris Mannix (Walton Goggins), un renegado sureño que afirma ser el nuevo sheriff del pueblo. Como una ventisca está a punto de alcanzarlos, Ruth, Domergue, Warren y Mannix se refugian en la Mercería de Minnie, una parada para diligencias de un puerto de montaña. Cuando llegan al local de Minnie, en lugar de recibirlos su dueña, se topan con cuatro rostros desconocidos

Español Latino 5.1 Doblaje 1 – Español Latino 5.1 Doblaje 2 – Ingles 5.1 Bluray

Ficha técnica

Video trailer de la película

Enlaces de descarga

Rip de Bluray

Descargar Los 8 más Odiados (2015) [Multi-Doblaje] PLACEBO 1080p Latino




Aportes de DPeliculasHDmega la pass es:dpeliculashdmega.org Aportes de CinemaniaHD la pass es:cinemaniahdd.com

Películas relacionadas

  • Blonde (2022) NF WEB-DL 1080p Latino

    Blonde (2022) NF WEB-DL 1080p Latino

    2022
    Blonde (2022) NF WEB-DL 1080p Latino

    2h 46m 2022

    Descargar Blonde (2022) NF WEB-DL 1080p Latino. Basada en el bestseller de la cinco veces finalista al...

    Director: Kristin Bree Calabrese

    Género: Drama

    Actores: Xavier Samuel

  • Borrego: Sal Del Camino (2022) HD 1080p Latino

    Borrego: Sal Del Camino (2022) HD 1080p Latino

    2022
    Borrego: Sal Del Camino (2022) HD 1080p Latino

    1h 42m 2022

    Descargar Borrego: Sal Del Camino (2022) HD 1080p Latino. Una joven botánica se traslada a un pequeño...

    Director: Jesse Harris

    Género: Crimen

    Actores: Olivia Trujillo

  • Borrego: Sal Del Camino (2022) REMUX 1080p Latino

    Borrego: Sal Del Camino (2022) REMUX 1080p Latino

    2022
    Borrego: Sal Del Camino (2022) REMUX 1080p Latino

    1h 42m 2022

    Descargar Borrego: Sal Del Camino (2022) REMUX 1080p Latino. Una joven botánica se traslada a un pequeño...

    Director: Jesse Harris

    Género: Crimen

    Actores: Olivia Trujillo

  • Infiniti (2022) Primera Temporada WEB-DL 1080p Latino

    Infiniti (2022) Primera Temporada WEB-DL 1080p Latino

    2022
    Infiniti (2022) Primera Temporada WEB-DL 1080p Latino

    0h 52m 2022

    La ISS, la Estación Espacial Internacional se ha quedado en silencio. La tripulación está en peligro....

    Director: Stéphane Pannetier

    Género: Drama

    Actores: Vlad Ivanov

descargar Los 8 más Odiados (2015) [Multi-Doblaje] PLACEBO 1080p Latino Full 1080p 1080p gratis, Los 8 más Odiados (2015) [Multi-Doblaje] PLACEBO 1080p Latino Full 1080p mega 1 link, Los 8 más Odiados (2015) [Multi-Doblaje] PLACEBO 1080p Latino Full 1080p pelicula completa, descargar Los 8 más Odiados (2015) [Multi-Doblaje] PLACEBO 1080p Latino Full 1080p gratis en mega.

Los 8 más Odiados (2015) [Multi-Doblaje] PLACEBO 1080p Latino pelicula full hd, Los 8 más Odiados (2015) [Multi-Doblaje] PLACEBO 1080p Latino mega latino, Los 8 más Odiados (2015) [Multi-Doblaje] PLACEBO 1080p Latino 4k latino, Los 8 más Odiados (2015) [Multi-Doblaje] PLACEBO 1080p Latino pelicula completa, Los 8 más Odiados (2015) [Multi-Doblaje] PLACEBO 1080p Latino descargar gratis, descargar Los 8 más Odiados (2015) [Multi-Doblaje] PLACEBO 1080p Latino pelicula latino, Los 8 más Odiados (2015) [Multi-Doblaje] PLACEBO 1080p Latino 1 link mega, Los 8 más Odiados (2015) [Multi-Doblaje] PLACEBO 1080p Latino 1 link google drive, Los 8 más Odiados (2015) [Multi-Doblaje] PLACEBO 1080p Latino hd 1080p latino.
Comentarios 0