Los 4 fantásticos y Silver Surfer (2007) 1080p Latino

383 vistas
1 estrella2 estrellas3 estrellas4 estrellas5 estrellas (4 votos, promedio: 3,00 de 5)
Cargando…

Información de Los 4 fantásticos y Silver Surfer (2007) 1080p Latino

Datos de la película

  • Calidad: 1080p
  • Audio: Español Latino AC3 5.1 BLURAY - Ingles AC3 5.1 BLURAY
  • Subtitulos: Español Latino SRT - Ingles SRT
  • Resolución: 1920x800p
  • Formato: MKV
  • Codec: H.264
  • Encoder: CinefiloCool
  • Mediainfo: Clic para Mostrar Datos Ver
  • Los 4 Fantasticos y Silver Surfer (2007) 1080p Latino.mkv
    Format                      : Matroska
    Format version              : Version 4 / Version 2
    File size                   : 2.82 GiB
    Duration                    : 1 h 31 min
    Overall bit rate            : 4 397 kb/s
    Movie name                  : CinemaniaHDD.Net
    Encoded date                : UTC 2018-10-23 02:27:33 / UTC 2018-10-22T10:37:07Z
    Writing application         : mkvmerge v25.0.0 ('Prog Noir') 64-bit
    Writing library             : libebml v1.3.6 + libmatroska v1.4.9 / Lavf57.7.2

    Video
    ID                          : 1
    Format                      : AVC
    Format/Info                 : Advanced Video Codec
    Format profile              : [email protected]
    Format settings             : CABAC / 5 Ref Frames
    Format settings, CABAC      : Yes
    Format settings, RefFrames  : 5 frames
    Codec ID                    : V_MPEG4/ISO/AVC
    Duration                    : 1 h 31 min
    Bit rate                    : 3 500 kb/s
    Width                       : 1 920 pixels
    Height                      : 800 pixels
    Display aspect ratio        : 2.40:1
    Frame rate mode             : Constant
    Frame rate                  : 23.976 (24000/1001) FPS
    Color space                 : YUV
    Chroma subsampling          : 4:2:0
    Bit depth                   : 8 bits
    Scan type                   : Progressive
    Bits/(Pixel*Frame)          : 0.095
    Stream size                 : 2.19 GiB (78%)
    Title                       : HD1080p [Bluray]
    Writing library             : x264 core 155 r2893 b00bcaf
    Encoding settings           : cabac=1 / ref=5 / deblock=1:0:0 / analyse=0x3:0x133 / me=umh / subme=9 / psy=1 / psy_rd=1.00:0.00 / mixed_ref=1 / me_range=16 / chroma_me=1 / trellis=2 / 8x8dct=1 / cqm=0 / deadzone=21,11 / fast_pskip=1 / chroma_qp_offset=-2 / threads=25 / lookahead_threads=2 / sliced_threads=0 / nr=0 / decimate=1 / interlaced=0 / bluray_compat=0 / constrained_intra=0 / bframes=3 / b_pyramid=2 / b_adapt=2 / b_bias=0 / direct=3 / weightb=1 / open_gop=0 / weightp=2 / keyint=240 / keyint_min=24 / scenecut=40 / intra_refresh=0 / rc_lookahead=60 / rc=2pass / mbtree=1 / bitrate=3500 / ratetol=1.0 / qcomp=0.60 / qpmin=0 / qpmax=69 / qpstep=4 / cplxblur=20.0 / qblur=0.5 / vbv_maxrate=62500 / vbv_bufsize=78125 / nal_hrd=none / filler=0 / ip_ratio=1.40 / aq=1:1.00
    Default                     : Yes
    Forced                      : No
    Color range                 : Limited
    Color primaries             : BT.709
    Transfer characteristics    : BT.709
    Matrix coefficients         : BT.709
    Statistics Tags Issue       : mkvmerge v25.0.0 ('Prog Noir') 64-bit 2018-10-23 02:27:33 / mkvmerge v25.0.0 ('Prog Noir') 64-bit 2018-10-23 02:27:33 / UTC 2018-10-22T10:37:07Z
    FromStats_BitRate           : 3499235
    FromStats_Duration          : 01:31:50.130000000
    FromStats_FrameCount        : 132111
    FromStats_StreamSize        : 2410155276

    Audio #1
    ID                          : 2
    Format                      : AC-3
    Format/Info                 : Audio Coding 3
    Format settings, Endianness : Big
    Codec ID                    : A_AC3
    Duration                    : 1 h 31 min
    Bit rate mode               : Constant
    Bit rate                    : 448 kb/s
    Channel(s)                  : 6 channels
    Channel positions           : Front: L C R, Side: L R, LFE
    Sampling rate               : 48.0 kHz
    Frame rate                  : 31.250 FPS (1536 SPF)
    Bit depth                   : 16 bits
    Compression mode            : Lossy
    Delay relative to video     : -5 ms
    Stream size                 : 294 MiB (10%)
    Title                       : AC3_5.1_Bluray_Esp
    Language                    : Spanish
    Service kind                : Complete Main
    Default                     : Yes
    Forced                      : Yes
    Statistics Tags Issue       : mkvmerge v25.0.0 ('Prog Noir') 64-bit 2018-10-23 02:27:33 / mkvmerge v25.0.0 ('Prog Noir') 64-bit 2018-10-23 02:27:33 / UTC 2018-10-22T10:37:07Z
    FromStats_BitRate           : 448000
    FromStats_Duration          : 01:31:42.944000000
    FromStats_FrameCount        : 171967
    FromStats_StreamSize        : 308164864

    Audio #2
    ID                          : 3
    Format                      : AC-3
    Format/Info                 : Audio Coding 3
    Format settings, Endianness : Big
    Codec ID                    : A_AC3
    Duration                    : 1 h 31 min
    Bit rate mode               : Constant
    Bit rate                    : 448 kb/s
    Channel(s)                  : 6 channels
    Channel positions           : Front: L C R, Side: L R, LFE
    Sampling rate               : 48.0 kHz
    Frame rate                  : 31.250 FPS (1536 SPF)
    Bit depth                   : 16 bits
    Compression mode            : Lossy
    Stream size                 : 294 MiB (10%)
    Title                       : AC3_5.1_Bluray_Eng
    Language                    : English
    Service kind                : Complete Main
    Default                     : No
    Forced                      : No
    Statistics Tags Issue       : mkvmerge v25.0.0 ('Prog Noir') 64-bit 2018-10-23 02:27:33 / mkvmerge v25.0.0 ('Prog Noir') 64-bit 2018-10-23 02:27:33 / UTC 2018-10-22T10:37:07Z
    FromStats_BitRate           : 448000
    FromStats_Duration          : 01:31:49.120000000
    FromStats_FrameCount        : 172160
    FromStats_StreamSize        : 308510720

    Text #1
    ID                          : 4
    Format                      : UTF-8
    Codec ID                    : S_TEXT/UTF8
    Codec ID/Info               : UTF-8 Plain Text
    Title                       : Sub_Esp
    Language                    : Spanish
    Default                     : Yes
    Forced                      : No
    Statistics Tags Issue       : mkvmerge v25.0.0 ('Prog Noir') 64-bit 2018-10-23 02:27:33 / mkvmerge v25.0.0 ('Prog Noir') 64-bit 2018-10-23 02:27:33 / UTC 2018-10-22T10:37:07Z
    FromStats_BitRate           : 48
    FromStats_Duration          : 01:23:42.242000000
    FromStats_FrameCount        : 894
    FromStats_StreamSize        : 30540

    Text #2
    ID                          : 5
    Format                      : UTF-8
    Codec ID                    : S_TEXT/UTF8
    Codec ID/Info               : UTF-8 Plain Text
    Title                       : Sub_Eng
    Language                    : English
    Default                     : No
    Forced                      : No
    Statistics Tags Issue       : mkvmerge v25.0.0 ('Prog Noir') 64-bit 2018-10-23 02:27:33 / mkvmerge v25.0.0 ('Prog Noir') 64-bit 2018-10-23 02:27:33 / UTC 2018-10-22T10:37:07Z
    FromStats_BitRate           : 47
    FromStats_Duration          : 01:28:19.972000000
    FromStats_FrameCount        : 882
    FromStats_StreamSize        : 31335

    Menu
    00:00:00.000                : :Chapter 1
    00:09:36.034                : :Chapter 2
    00:13:41.654                : :Chapter 3
    00:18:08.212                : :Chapter 4
    00:23:46.717                : :Chapter 5
    00:28:37.299                : :Chapter 6
    00:33:50.779                : :Chapter 7
    00:38:28.014                : :Chapter 8
    00:42:26.919                : :Chapter 9
    00:45:32.230                : :Chapter 10
    00:50:57.680                : :Chapter 11
    00:53:58.152                : :Chapter 12
    00:56:46.945                : :Chapter 13
    01:01:09.124                : :Chapter 14
    01:06:37.035                : :Chapter 15
    01:10:51.831                : :Chapter 16
    01:16:23.746                : :Chapter 17
    01:20:15.894                : :Chapter 18
    01:26:21.968                : :Chapter 19

  • Peso: 2.82 GiB

Sinopsis

Los 4 fantásticos y Silver Surfer (2007) 1080p Latino; Mega, Google Drive. La primera familia de superhéroes de Marvel, los Cuatro Fantásticos, se enfrentan a su mayor reto hasta la fecha cuando un enigmático heraldo intergaláctico, Estela Plateada, llega a la Tierra para prepararla para su destrucción. Mientras Estela Plateada recorre el mundo sembrando la destrucción, Reed, Sue, Johnny y Ben deben desentrañar el misterio de dicho personaje, y hacer frente al sorprendente regreso de su mortal enemigo el Doctor Muerte, antes de perder toda esperanza…

Ficha técnica

  • Titulo original: Fantastic Four: Rise of the Silver Surfer
  • Fecha de lanzamiento: 13-06-2007 (Germany, United Kingdom, United States of America)
  • Director: Tim Story
  • Género: Acción, Aventura, Fantasía, HD 1080p, Suspense
  • Puntuación: 3.0 4 votos
  • Duración:
    1h 32m

Video trailer de la película

Enlaces de descarga

Rip de Bluray

Descargar Los 4 fantásticos y Silver Surfer (2007) 1080p Latino




Aportes de DPeliculasHDmega la pass es:dpeliculashdmega.org Aportes de CinemaniaHD la pass es:cinemaniahdd.com
Guardado en : Acción , Aventura , Fantasía , HD 1080p , Suspense

Películas relacionadas

  • Poseído (2018) WEB-DL 1080p Latino

    2018
    Poseído (2018) WEB-DL 1080p Latino

    0.0 1h 27m 2018

    Mary está embarazada de gemelos, pero, en el parto, uno de los bebés muere. Diagnosticada con depresión...

    Director: Brandon Christensen

    Género: Suspense

    Actores: Sheila McCarthy

  • La favorita (2018) 1080p Latino

    2018
    La favorita (2018) 1080p Latino

    0.0 2h 0m 2018

    Descargar La favorita (2018) 1080p Latino, Mega, Google Drive, Torrent. Principios del siglo XVIII. Inglaterra...

    Director: Yorgos Lanthimos

    Género: Comedia

    Actores: Wilson Radjou-Pujalte

  • Painless (2017) WEB-DL 1080p Latino

    2017
    Painless (2017) WEB-DL 1080p Latino

    0.0 1h 21m 2017

    Henry Long busca desesperadamente una cura para la afección que lo deja incapaz de sentir dolor físico.

    Director: Jordan Horowitz

    Género: Drama

    Actores: Valeria Sistrunk

  • Instant Family (2018) 1080p Latino

    2018
    Instant Family (2018) 1080p Latino

    5.0 1h 58m 2018

    La emoción y alegría de convertirse en padres llega de pronto para Pete y Ellie, una joven pareja que...

    Director: Sean Anders

    Género: Comedia

    Actores: Valente Rodriguez

Comentarios 0