×

¿Problemas para descargar con Mozilla, EDGE? Deshabilita la opción "Abrir vinculos en una pestaña nueva" tal como lo muestra ésta imagen.

Lorelei (2020) WEB-DL 1080p Latino

266 vistas

Información de Lorelei (2020) WEB-DL 1080p Latino

Datos de la película

  • Calidad: 1080p
  • Audio: Español Latino AC3 2.0 WEB-DL - Ingles AC3 5.1 WEB-DL
  • Subtitulos: Español Latino SRT- FORZADOS SRT
  • Resolución: 1920x1080
  • Formato: MKV
  • Codec: H.264
  • Encoder: cinemaniahdd
  • Mediainfo: Clic para Mostrar Datos Ver
  • Lorelei (2020) WEB-DL 1080p Latino [CNMNHDD].mkv
    Format                      : Matroska
    Format version              : Version 4
    File size                   : 5.69 GiB
    Duration                    : 1 h 50 min
    Overall bit rate            : 7 349 kb/s
    Encoded date                : UTC 2023-04-09 02:38:25
    Writing application         : mkvmerge v56.1.0 ('My Friend') 64-bit
    Writing library             : libebml v1.4.2 + libmatroska v1.6.4

    Video
    ID                          : 1
    Format                      : AVC
    Format/Info                 : Advanced Video Codec
    Format profile              : High@L4
    Format settings             : CABAC / 4 Ref Frames
    Format settings, CABAC      : Yes
    Format settings, Reference  : 4 frames
    Codec ID                    : V_MPEG4/ISO/AVC
    Duration                    : 1 h 50 min
    Bit rate                    : 6 578 kb/s
    Width                       : 1 912 pixels
    Height                      : 1 028 pixels
    Display aspect ratio        : 1.85:1
    Frame rate mode             : Constant
    Frame rate                  : 23.976 (24000/1001) FPS
    Color space                 : YUV
    Chroma subsampling          : 4:2:0
    Bit depth                   : 8 bits
    Scan type                   : Progressive
    Bits/(Pixel*Frame)          : 0.140
    Stream size                 : 5.09 GiB (90%)
    Title                       : CinemaniaHDD
    Default                     : Yes
    Forced                      : No
    Color range                 : Limited
    Color primaries             : BT.709
    Transfer characteristics    : BT.709
    Matrix coefficients         : BT.709

    Audio #1
    ID                          : 2
    Format                      : AC-3
    Format/Info                 : Audio Coding 3
    Commercial name             : Dolby Digital
    Codec ID                    : A_AC3
    Duration                    : 1 h 50 min
    Bit rate mode               : Constant
    Bit rate                    : 384 kb/s
    Channel(s)                  : 2 channels
    Channel layout              : L R
    Sampling rate               : 48.0 kHz
    Frame rate                  : 31.250 FPS (1536 SPF)
    Compression mode            : Lossy
    Stream size                 : 305 MiB (5%)
    Title                       : Español Latino [CinemaniaHDD]
    Language                    : Spanish
    Service kind                : Complete Main
    Default                     : Yes
    Forced                      : No

    Audio #2
    ID                          : 3
    Format                      : AC-3
    Format/Info                 : Audio Coding 3
    Commercial name             : Dolby Digital
    Codec ID                    : A_AC3
    Duration                    : 1 h 50 min
    Bit rate mode               : Constant
    Bit rate                    : 384 kb/s
    Channel(s)                  : 6 channels
    Channel layout              : L R C LFE Ls Rs
    Sampling rate               : 48.0 kHz
    Frame rate                  : 31.250 FPS (1536 SPF)
    Compression mode            : Lossy
    Stream size                 : 305 MiB (5%)
    Title                       : Inglés [CinemaniaHDD]
    Language                    : English
    Service kind                : Complete Main
    Default                     : No
    Forced                      : No

    Text #1
    ID                          : 4
    Format                      : UTF-8
    Codec ID                    : S_TEXT/UTF8
    Codec ID/Info               : UTF-8 Plain Text
    Duration                    : 1 h 47 min
    Bit rate                    : 0 b/s
    Count of elements           : 20
    Stream size                 : 496 Bytes (0%)
    Title                       : Forzados [CinemaniaHDD]
    Language                    : Spanish
    Default                     : Yes
    Forced                      : Yes

    Text #2
    ID                          : 5
    Format                      : UTF-8
    Codec ID                    : S_TEXT/UTF8
    Codec ID/Info               : UTF-8 Plain Text
    Duration                    : 1 h 47 min
    Bit rate                    : 54 b/s
    Count of elements           : 1420
    Stream size                 : 42.7 KiB (0%)
    Title                       : Español
    Language                    : Spanish
    Default                     : No
    Forced                      : No

     

  • Peso: 5.69 GiB

Sinopsis

Tras 15 años en prisión, Wayland regresa a su ciudad natal y se reencuentra con su antigua novia del colegio, que ahora es una madre soltera que lucha por sacar adelante a sus tres hijos. Con el paso del tiempo, él acaba convirtiéndose en una figura paterna para la familia, mientras ella mantiene vivo su sueño de vivir en Los Ángeles.

Ficha técnica

  • Titulo original: Lorelei
  • Fecha de lanzamiento: 09-09-2020 (United States of America)
  • Director: Sabrina Doyle
  • Género: Drama

Video trailer de la película

Enlaces de descarga

Rip de Bluray

Descargar Lorelei (2020) WEB-DL 1080p Latino




Aportes de DPeliculasHDmega la pass es:dpeliculashdmega.org Aportes de CinemaniaHD la pass es:cinemaniahdd.com Aportes recientes:cinemaniahdd.net
Guardado en : Drama

Películas relacionadas

descargar Lorelei (2020) WEB-DL 1080p Latino 1080p 1080p gratis, Lorelei (2020) WEB-DL 1080p Latino 1080p mega 1 link, Lorelei (2020) WEB-DL 1080p Latino 1080p pelicula completa, descargar Lorelei (2020) WEB-DL 1080p Latino 1080p gratis en mega.

Lorelei (2020) WEB-DL 1080p Latino pelicula full hd, Lorelei (2020) WEB-DL 1080p Latino mega latino, Lorelei (2020) WEB-DL 1080p Latino 4k latino, Lorelei (2020) WEB-DL 1080p Latino pelicula completa, Lorelei (2020) WEB-DL 1080p Latino descargar gratis, descargar Lorelei (2020) WEB-DL 1080p Latino pelicula latino, Lorelei (2020) WEB-DL 1080p Latino 1 link mega, Lorelei (2020) WEB-DL 1080p Latino 1 link google drive, Lorelei (2020) WEB-DL 1080p Latino hd 1080p latino.
Comentarios 0