×

¿Problemas para descargar con Mozilla, EDGE? Deshabilita la opción "Abrir vinculos en una pestaña nueva" tal como lo muestra ésta imagen.

Looney Tunes De nuevo en acción (2003) REMUX 1080p Latino

1.223 vistas

Información de Looney Tunes De nuevo en acción (2003) REMUX 1080p Latino

Datos de la película

  • Calidad: Full 1080p
  • Audio: Español Latino AC3 5.1 BLURAY - Ingles DTS 5.1 BLURAY
  • Subtitulos: Español Latino SRT
  • Resolución: 1920x1080p
  • Formato: MKV
  • Codec: H.264
  • Encoder: Dracarys
  • Mediainfo: Clic para Mostrar Datos Ver
  • Format                      : Matroska
    Format version              : Version 4
    File size                   : 19.4 GiB
    Duration                    : 1 h 31 min
    Overall bit rate mode       : Variable
    Overall bit rate            : 30.3 Mb/s
    Movie name                  : CinemaniaHDD.net
    Encoded date                : UTC 2019-07-17 22:57:26
    Writing application         : mkvmerge v35.0.0 ('All The Love In The World') 64-bit
    Writing library             : libebml v1.3.9 + libmatroska v1.5.2

    Video
    ID                          : 1
    Format                      : AVC
    Format/Info                 : Advanced Video Codec
    Format profile              : High@L4.1
    Format settings             : CABAC / 2 Ref Frames
    Format settings, CABAC      : Yes
    Format settings, ReFrames   : 2 frames
    Codec ID                    : V_MPEG4/ISO/AVC
    Duration                    : 1 h 31 min
    Bit rate mode               : Variable
    Bit rate                    : 25.9 Mb/s
    Width                       : 1 920 pixels
    Height                      : 1 080 pixels
    Display aspect ratio        : 16:9
    Frame rate mode             : Constant
    Frame rate                  : 23.976 (24000/1001) FPS
    Color space                 : YUV
    Chroma subsampling          : 4:2:0
    Bit depth                   : 8 bits
    Scan type                   : Progressive
    Bits/(Pixel*Frame)          : 0.521
    Stream size                 : 16.6 GiB (86%)
    Language                    : English
    Default                     : Yes
    Forced                      : No

    Audio #1
    ID                          : 2
    Format                      : DTS XLL
    Format/Info                 : Digital Theater Systems
    Commercial name             : DTS-HD Master Audio
    Codec ID                    : A_DTS
    Duration                    : 1 h 31 min
    Bit rate mode               : Variable
    Bit rate                    : 3 703 kb/s
    Channel(s)                  : 6 channels
    Channel layout              : C L R Ls Rs LFE
    Sampling rate               : 48.0 kHz
    Frame rate                  : 93.750 FPS (512 SPF)
    Bit depth                   : 24 bits
    Compression mode            : Lossless
    Stream size                 : 2.37 GiB (12%)
    Language                    : English
    Default                     : No
    Forced                      : No

    Audio #2
    ID                          : 3
    Format                      : AC-3
    Format/Info                 : Audio Coding 3
    Commercial name             : Dolby Digital
    Codec ID                    : A_AC3
    Duration                    : 1 h 31 min
    Bit rate mode               : Constant
    Bit rate                    : 640 kb/s
    Channel(s)                  : 6 channels
    Channel layout              : L R C LFE Ls Rs
    Sampling rate               : 48.0 kHz
    Frame rate                  : 31.250 FPS (1536 SPF)
    Bit depth                   : 16 bits
    Compression mode            : Lossy
    Stream size                 : 420 MiB (2%)
    Language                    : Spanish
    Service kind                : Complete Main
    Default                     : Yes
    Forced                      : No

    Text #1
    ID                          : 4
    Format                      : PGS
    Muxing mode                 : zlib
    Codec ID                    : S_HDMV/PGS
    Codec ID/Info               : Picture based subtitle format used on BDs/HD-DVDs
    Duration                    : 1 h 31 min
    Bit rate                    : 29.7 kb/s
    Count of elements           : 2160
    Stream size                 : 19.4 MiB (0%)
    Language                    : Spanish
    Default                     : No
    Forced                      : No

    Text #2
    ID                          : 5
    Format                      : UTF-8
    Codec ID                    : S_TEXT/UTF8
    Codec ID/Info               : UTF-8 Plain Text
    Duration                    : 1 h 31 min
    Bit rate                    : 56 b/s
    Count of elements           : 1080
    Stream size                 : 37.8 KiB (0%)
    Language                    : Spanish
    Default                     : No
    Forced                      : No

  • Peso: 19.4 GiB

Sinopsis

Cansado de que toda la atención vaya a parar a Bugs Bunny, el pato Daffy abandona Hollywood y se une al especialista en doblaje recientemente despedido Bobby Delmont para embarcarse juntos en una aventura. Su misión: encontrar un diamante azul desaparecido del padre de Bobby, y permanecer un paso por delante de Bugs Bunny y una ejecutiva del estudio que van tras su pista… Mezcla de personajes de animación de la Warner Bros. -los creados por Chuck Jones- y actores reales, escrita por uno de los responsables de la serie «Los Simpsons». (FILMAFFINITY)

Ficha técnica

Video trailer de la película

Enlaces de descarga

Rip de Bluray

Descargar Looney Tunes De nuevo en acción (2003) REMUX 1080p Latino




Aportes de DPeliculasHDmega la pass es:dpeliculashdmega.org Aportes de CinemaniaHD la pass es:cinemaniahdd.com Aportes recientes:cinemaniahdd.net
Guardado en : Animación , Comedia , Familia , Remux

Películas relacionadas

  • Telma: La Unicornio (2024) NF WEB-DL 1080p Latino

    Telma: La Unicornio (2024) NF WEB-DL 1080p Latino

    2024
    Telma: La Unicornio (2024) NF WEB-DL 1080p Latino

    1h 33m 2024

    Descargar Telma: La Unicornio (2024) NF WEB-DL 1080p Latino. Una poni cantante que sueña con el estrellato...

    Director: Lynn Wang

    Género: Animación

    Actores: Zach Galifianakis

  • En llamas (2023) REMUX 1080p Latino

    En llamas (2023) REMUX 1080p Latino

    2023
    En llamas (2023) REMUX 1080p Latino

    1h 17m 2023

    Descargar En llamas (2023) REMUX 1080p Latino. Una familia vive en una casa rodante en el bosque y de...

    Director: Peter Facinelli

    Género: Acción

    Actores: Ross McCall

  • Antes de conocernos (2023) HD 1080p Latino

    Antes de conocernos (2023) HD 1080p Latino

    2023
    Antes de conocernos (2023) HD 1080p Latino

    1h 38m 2023

    Descargar Antes de conocernos (2023) HD 1080p Latino. Jane y Will, dos adultos jóvenes, dedican tiempo...

    Director: Peter Hutchings

    Género: Comedia

    Actores: Ward Horton

descargar Looney Tunes De nuevo en acción (2003) REMUX 1080p Latino Full 1080p 1080p gratis, Looney Tunes De nuevo en acción (2003) REMUX 1080p Latino Full 1080p mega 1 link, Looney Tunes De nuevo en acción (2003) REMUX 1080p Latino Full 1080p pelicula completa, descargar Looney Tunes De nuevo en acción (2003) REMUX 1080p Latino Full 1080p gratis en mega.

Looney Tunes De nuevo en acción (2003) REMUX 1080p Latino pelicula full hd, Looney Tunes De nuevo en acción (2003) REMUX 1080p Latino mega latino, Looney Tunes De nuevo en acción (2003) REMUX 1080p Latino 4k latino, Looney Tunes De nuevo en acción (2003) REMUX 1080p Latino pelicula completa, Looney Tunes De nuevo en acción (2003) REMUX 1080p Latino descargar gratis, descargar Looney Tunes De nuevo en acción (2003) REMUX 1080p Latino pelicula latino, Looney Tunes De nuevo en acción (2003) REMUX 1080p Latino 1 link mega, Looney Tunes De nuevo en acción (2003) REMUX 1080p Latino 1 link google drive, Looney Tunes De nuevo en acción (2003) REMUX 1080p Latino hd 1080p latino.
Comentarios 0