×

¿Problemas para descargar con Mozilla, EDGE? Deshabilita la opción "Abrir vinculos en una pestaña nueva" tal como lo muestra ésta imagen.

Looking Glass (2018) REMUX 1080p Latino

298 vistas

Información de Looking Glass (2018) REMUX 1080p Latino

Datos de la película

  • Calidad: Full 1080p
  • Audio: Español Latino AC3 5.1 iTUNES - Ingles DTS 5.1 BLURAY
  • Subtitulos: Español Latino SRT- FORZADOS SRT
  • Resolución: 120x1080p
  • Formato: MKV
  • Codec: H.264
  • Encoder: Melkor
  • Mediainfo: Clic para Mostrar Datos Ver
  • El Espejo (2018) REMUX 1080p Latino.mkv
    Format                      : Matroska
    Format version              : Version 4
    File size                   : 23.3 GiB
    Duration                    : 1 h 43 min
    Overall bit rate mode       : Variable
    Overall bit rate            : 32.1 Mb/s
    Movie name                  : Looking Glass (2018) CinemaniaHDD.Net
    Encoded date                : UTC 2020-08-14 02:14:30
    Writing application         : mkvmerge v46.0.0 ('No Deeper Escape') 64-bit
    Writing library             : libebml v1.3.10 + libmatroska v1.5.2
    Attachments                 : CINEMANIAHD.png

    Video
    ID                          : 1
    Format                      : AVC
    Format/Info                 : Advanced Video Codec
    Format profile              : High@L4.1
    Format settings             : CABAC / 4 Ref Frames
    Format settings, CABAC      : Yes
    Format settings, Reference  : 4 frames
    Codec ID                    : V_MPEG4/ISO/AVC
    Duration                    : 1 h 43 min
    Bit rate mode               : Variable
    Bit rate                    : 29.9 Mb/s
    Maximum bit rate            : 35.0 Mb/s
    Width                       : 1 920 pixels
    Height                      : 1 080 pixels
    Display aspect ratio        : 16:9
    Frame rate mode             : Constant
    Frame rate                  : 23.976 (24000/1001) FPS
    Standard                    : NTSC
    Color space                 : YUV
    Chroma subsampling          : 4:2:0
    Bit depth                   : 8 bits
    Scan type                   : Progressive
    Bits/(Pixel*Frame)          : 0.602
    Stream size                 : 21.7 GiB (93%)
    Title                       : REMUX 1080p [CinemaniaHDD]
    Default                     : Yes
    Forced                      : No
    Color range                 : Limited
    Color primaries             : BT.709
    Transfer characteristics    : BT.709
    Matrix coefficients         : BT.709

    Audio #1
    ID                          : 2
    Format                      : AC-3
    Format/Info                 : Audio Coding 3
    Commercial name             : Dolby Digital
    Codec ID                    : A_AC3
    Duration                    : 1 h 43 min
    Bit rate mode               : Constant
    Bit rate                    : 384 kb/s
    Channel(s)                  : 6 channels
    Channel layout              : L R C LFE Ls Rs
    Sampling rate               : 48.0 kHz
    Frame rate                  : 31.250 FPS (1536 SPF)
    Compression mode            : Lossy
    Delay relative to video     : 828 ms
    Stream size                 : 285 MiB (1%)
    Title                       : Español Latino [CinemaniaHDD]
    Language                    : Spanish
    Service kind                : Complete Main
    Default                     : Yes
    Forced                      : No

    Audio #2
    ID                          : 3
    Format                      : DTS XLL
    Format/Info                 : Digital Theater Systems
    Commercial name             : DTS-HD Master Audio
    Codec ID                    : A_DTS
    Duration                    : 1 h 43 min
    Bit rate mode               : Variable
    Bit rate                    : 1 830 kb/s
    Channel(s)                  : 6 channels
    Channel layout              : C L R Ls Rs LFE
    Sampling rate               : 48.0 kHz
    Frame rate                  : 93.750 FPS (512 SPF)
    Bit depth                   : 16 bits
    Compression mode            : Lossless
    Stream size                 : 1.32 GiB (6%)
    Title                       : Ingles [CinemaniaHDD]
    Language                    : English
    Default                     : No
    Forced                      : No

    Text #1
    ID                          : 4
    Format                      : UTF-8
    Codec ID                    : S_TEXT/UTF8
    Codec ID/Info               : UTF-8 Plain Text
    Duration                    : 1 h 39 min
    Bit rate                    : 0 b/s
    Count of elements           : 10
    Stream size                 : 264 Bytes (0%)
    Title                       : Forzados-SRT [CinemaniaHDD]
    Language                    : Spanish
    Default                     : Yes
    Forced                      : No

    Text #2
    ID                          : 5
    Format                      : UTF-8
    Codec ID                    : S_TEXT/UTF8
    Codec ID/Info               : UTF-8 Plain Text
    Duration                    : 1 h 39 min
    Bit rate                    : 37 b/s
    Count of elements           : 890
    Stream size                 : 27.2 KiB (0%)
    Title                       : Español-SRT [CinemaniaHDD]
    Language                    : Spanish
    Default                     : No
    Forced                      : No

    Text #3
    ID                          : 6
    Format                      : UTF-8
    Codec ID                    : S_TEXT/UTF8
    Codec ID/Info               : UTF-8 Plain Text
    Duration                    : 1 h 42 min
    Bit rate                    : 41 b/s
    Count of elements           : 972
    Stream size                 : 31.0 KiB (0%)
    Title                       : Ingles-SRT [CinemaniaHDD]
    Language                    : English
    Default                     : No
    Forced                      : No

    Menu
    00:00:00.000                : en:Chapter 01
    00:04:18.841                : en:Chapter 02
    00:10:04.562                : en:Chapter 03
    00:17:02.771                : en:Chapter 04
    00:24:42.105                : en:Chapter 05
    00:32:08.760                : en:Chapter 06
    00:40:35.015                : en:Chapter 07
    00:45:33.439                : en:Chapter 08
    00:53:29.497                : en:Chapter 09
    01:01:07.080                : en:Chapter 10
    01:05:08.112                : en:Chapter 11
    01:10:38.901                : en:Chapter 12
    01:18:02.844                : en:Chapter 13
    01:27:03.843                : en:Chapter 14
    01:32:52.775                : en:Chapter 15
    01:40:57.968                : en:Chapter 16

  • Peso: 23.3 GiB

Sinopsis

Descargar Looking Glass (2018) REMUX 1080p Latino. Ray (Nicolas Cage) y Maggie (Robin Tunney), un matrimonio que ha sufrido una trágica pérdida, compra un hotel abandonado. Ray descubre que los espejos de las habitaciones son de doble vía, y en lugar de retirarlos, los utiliza para espiar a una de las huespedes por los sucesos extraños que tienen lugar en ese cuarto. Así, este matrimonio se verá envuelto en una historia de asesinatos, sexo e intriga.

Ficha técnica

Video trailer de la película

Enlaces de descarga

Rip de Bluray

Descargar Looking Glass (2018) REMUX 1080p Latino




Aportes de DPeliculasHDmega la pass es:dpeliculashdmega.org Aportes de CinemaniaHD la pass es:cinemaniahdd.com
Guardado en : Misterio , Remux , Suspenso

Películas relacionadas

  • Wire Room (2022) HD 1080p Latino

    Wire Room (2022) HD 1080p Latino

    2022
    Wire Room (2022) HD 1080p Latino

    1h 37m 2022

    Descargar Wire Room (2022) HD 1080p Latino. Mientras está de servicio en la sala de cables, un agente...

    Director: Matt Eskandari

    Género: Acción

    Actores: Texas Battle

  • Wire Room (2022) PLACEBO Full HD 1080p Latino

    Wire Room (2022) PLACEBO Full HD 1080p Latino

    2022
    Wire Room (2022) PLACEBO Full HD 1080p Latino

    1h 37m 2022

    Descargar Wire Room (2022) PLACEBO Full HD 1080p Latino. Mientras está de servicio en la sala de cables,...

    Director: Matt Eskandari

    Género: Acción

    Actores: Texas Battle

  • Wire Room (2022) REMUX 1080p Latino

    Wire Room (2022) REMUX 1080p Latino

    2022
    Wire Room (2022) REMUX 1080p Latino

    1h 37m 2022

    Descargar Wire Room (2022) REMUX 1080p Latino. Mientras está de servicio en la sala de cables, un agente...

    Director: Matt Eskandari

    Género: Acción

    Actores: Texas Battle

  • Alarido (2022) HD 1080p Latino

    Alarido (2022) HD 1080p Latino

    2022
    Alarido (2022) HD 1080p Latino

    1h 29m 2022

    Descargar Alarido (2022) HD 1080p Latino. Una joven madre soltera es cautiva junto con sus dos hijos...

    Director: D.J. Caruso

    Género: HD 1080p

    Actores: Vincent Gallo

  • Alarido (2022) PLACEBO Full HD 1080p Latino

    Alarido (2022) PLACEBO Full HD 1080p Latino

    2022
    Alarido (2022) PLACEBO Full HD 1080p Latino

    1h 29m 2022

    Descargar Alarido (2022) PLACEBO Full HD 1080p Latino. Una joven madre soltera es cautiva junto con sus...

    Director: D.J. Caruso

    Género: FULL 1080p Plateadas

    Actores: Vincent Gallo

descargar Looking Glass (2018) REMUX 1080p Latino Full 1080p 1080p gratis, Looking Glass (2018) REMUX 1080p Latino Full 1080p mega 1 link, Looking Glass (2018) REMUX 1080p Latino Full 1080p pelicula completa, descargar Looking Glass (2018) REMUX 1080p Latino Full 1080p gratis en mega.

Looking Glass (2018) REMUX 1080p Latino pelicula full hd, Looking Glass (2018) REMUX 1080p Latino mega latino, Looking Glass (2018) REMUX 1080p Latino 4k latino, Looking Glass (2018) REMUX 1080p Latino pelicula completa, Looking Glass (2018) REMUX 1080p Latino descargar gratis, descargar Looking Glass (2018) REMUX 1080p Latino pelicula latino, Looking Glass (2018) REMUX 1080p Latino 1 link mega, Looking Glass (2018) REMUX 1080p Latino 1 link google drive, Looking Glass (2018) REMUX 1080p Latino hd 1080p latino.
Comentarios 0