Look Away (2018) 1080p Latino

945 vistas
1 estrella2 estrellas3 estrellas4 estrellas5 estrellas (2 votos, promedio: 4,50 de 5)
Cargando…

Información de Look Away (2018) 1080p Latino

Datos de la película

  • Calidad: 1080p
  • Audio: Español Latino AC3 5.1 DVD - Ingles AC3 5.1 BLURAY
  • Subtitulos: Español Latino SRT- FORZADOS SRT
  • Resolución: 1920x800
  • Formato: MKV
  • Codec: H.264
  • Encoder: cinemaniahdd
  • Mediainfo: Clic para Mostrar Datos Ver
  • \Look Away (2018) 1080p Latino.mkv
    Format                      : Matroska
    Format version              : Version 4
    File size                   : 3.11 GiB
    Duration                    : 1 h 43 min
    Overall bit rate            : 4 292 kb/s
    Movie name                  : CinemaniaHDD.Net
    Encoded date                : UTC 2019-04-17 04:58:35
    Writing application         : mkvmerge v22.0.0 ('At The End Of The World') 64-bit
    Writing library             : libebml v1.3.5 + libmatroska v1.4.8

    Video
    ID                          : 1
    Format                      : AVC
    Format/Info                 : Advanced Video Codec
    Format profile              : [email protected]
    Format settings             : CABAC / 5 Ref Frames
    Format settings, CABAC      : Yes
    Format settings, ReFrames   : 5 frames
    Codec ID                    : V_MPEG4/ISO/AVC
    Duration                    : 1 h 43 min
    Bit rate                    : 3 500 kb/s
    Width                       : 1 920 pixels
    Height                      : 800 pixels
    Display aspect ratio        : 2.35:1
    Frame rate mode             : Constant
    Frame rate                  : 23.976 (24000/1001) FPS
    Color space                 : YUV
    Chroma subsampling          : 4:2:0
    Bit depth                   : 8 bits
    Scan type                   : Progressive
    Bits/(Pixel*Frame)          : 0.095
    Stream size                 : 2.50 GiB (81%)
    Writing library             : x264 core 157 r2935 545de2f
    Encoding settings           : cabac=1 / ref=5 / deblock=1:0:0 / analyse=0x1:0x131 / me=umh / subme=9 / psy=1 / psy_rd=1.00:0.00 / mixed_ref=1 / me_range=16 / chroma_me=1 / trellis=2 / 8x8dct=0 / cqm=0 / deadzone=21,11 / fast_pskip=1 / chroma_qp_offset=-2 / threads=25 / lookahead_threads=2 / sliced_threads=0 / nr=0 / decimate=1 / interlaced=0 / bluray_compat=0 / constrained_intra=0 / bframes=3 / b_pyramid=2 / b_adapt=2 / b_bias=0 / direct=3 / weightb=1 / open_gop=0 / weightp=2 / keyint=240 / keyint_min=24 / scenecut=40 / intra_refresh=0 / rc_lookahead=60 / rc=abr / mbtree=1 / bitrate=3500 / ratetol=1.0 / qcomp=0.60 / qpmin=0 / qpmax=69 / qpstep=4 / vbv_maxrate=20000 / vbv_bufsize=25000 / nal_hrd=none / filler=0 / ip_ratio=1.40 / aq=1:1.00
    Default                     : Yes
    Forced                      : No
    Color range                 : Limited
    Color primaries             : BT.709
    Transfer characteristics    : BT.709
    Matrix coefficients         : BT.709

    Audio #1
    ID                          : 2
    Format                      : AC-3
    Format/Info                 : Audio Coding 3
    Commercial name             : Dolby Digital
    Codec ID                    : A_AC3
    Duration                    : 1 h 43 min
    Bit rate mode               : Constant
    Bit rate                    : 384 kb/s
    Channel(s)                  : 6 channels
    Channel layout              : L R C LFE Ls Rs
    Sampling rate               : 48.0 kHz
    Frame rate                  : 31.250 FPS (1536 SPF)
    Bit depth                   : 16 bits
    Compression mode            : Lossy
    Delay relative to video     : -5 ms
    Stream size                 : 285 MiB (9%)
    Title                       : CinemaniaHDD.Net
    Language                    : Spanish
    Service kind                : Complete Main
    Default                     : Yes
    Forced                      : No

    Audio #2
    ID                          : 3
    Format                      : AC-3
    Format/Info                 : Audio Coding 3
    Commercial name             : Dolby Digital
    Codec ID                    : A_AC3
    Duration                    : 1 h 43 min
    Bit rate mode               : Constant
    Bit rate                    : 448 kb/s
    Channel(s)                  : 6 channels
    Channel layout              : L R C LFE Ls Rs
    Sampling rate               : 48.0 kHz
    Frame rate                  : 31.250 FPS (1536 SPF)
    Bit depth                   : 16 bits
    Compression mode            : Lossy
    Delay relative to video     : -5 ms
    Stream size                 : 332 MiB (10%)
    Title                       : CinemaniaHDD.Net
    Language                    : English
    Service kind                : Complete Main
    Default                     : No
    Forced                      : No

    Text #1
    ID                          : 4
    Format                      : UTF-8
    Codec ID                    : S_TEXT/UTF8
    Codec ID/Info               : UTF-8 Plain Text
    Duration                    : 1 h 39 min
    Bit rate                    : 0 b/s
    Count of elements           : 7
    Stream size                 : 194 Bytes (0%)
    Title                       : Forzados - CinemaniaHDD.Net
    Language                    : Spanish
    Default                     : Yes
    Forced                      : Yes

    Text #2
    ID                          : 5
    Format                      : UTF-8
    Codec ID                    : S_TEXT/UTF8
    Codec ID/Info               : UTF-8 Plain Text
    Duration                    : 1 h 40 min
    Bit rate                    : 27 b/s
    Count of elements           : 847
    Stream size                 : 20.6 KiB (0%)
    Title                       : CinemaniaHDD.Net
    Language                    : Spanish
    Default                     : No
    Forced                      : No

    Menu
    00:00:00.000                : :00:00:00.000
    00:10:36.261                : :00:10:36.219
    00:19:55.945                : :00:19:55.820
    00:26:28.796                : :00:26:28.796
    00:35:58.073                : :00:35:57.947
    00:43:52.755                : :00:43:52.630
    00:53:10.896                : :00:53:10.896
    01:01:52.584                : :01:01:52.459
    01:09:05.642                : :01:09:05.641
    01:17:10.042                : :01:17:10.042
    01:24:25.894                : :01:24:25.811
    01:37:18.708                : :01:37:18.708

  • Peso: 3.11 GiB

Sinopsis

Una solitaria y tímida estudiante de instituto de 18 años apenas le queda refugiarse en conversaciones con su reflejo en el espejo ante la falta de amigos y de apoyo que tiene de su familia. En el espejo encontrará a su gemela malvada, alguien que la apoya, pero en esa nueva libertad desencadenará sentimientos reprimidos.

Ficha técnica

  • Titulo original: Look Away
  • Fecha de lanzamiento: 12-10-2018 (Canada)
  • Director: Assaf Bernstein
  • Género: Suspenso, Terror
  • Puntuación: 4.5 2 votos
  • Duración:
    1h 43m

Video trailer de la película

Enlaces de descarga

Rip de Bluray

Descargar Look Away (2018) 1080p Latino




Aportes de DPeliculasHDmega la pass es:dpeliculashdmega.org Aportes de CinemaniaHD la pass es:cinemaniahdd.com
Guardado en : Suspenso , Terror

Películas relacionadas

  • Arizona (2018) 1080p Latino

    2018
    Arizona (2018) 1080p Latino

    5.0 1h 25m 2018

    Ambientada en medio de la crisis de la vivienda de 2009, esta oscura y cómica historia sigue a Cassie...

    Director: Mara Herdmann

    Género: Comedia

    Actores: Vivian Nesbitt

  • The Prodigy (2019) WEB-DL 1080p Latino

    2019
    The Prodigy (2019) WEB-DL 1080p Latino

    0.0 1h 32m 2019

    Una madre preocupada por el comportamiento perturbador de su hijo, está convencida de que algo sobrenatural...

    Director: Nicholas McCarthy

    Género: Suspenso

    Actores: Taylor Schilling

  • Destroyer – Una mujer herida (2018) 1080p Latino

    2018
    Destroyer – Una mujer herida (2018) 1080p Latino

    0.0 2h 3m 2018

    Descargar Destroyer - Una mujer herida (2018) 1080p Latino, Mega, Google Drive. Erin Bell trabajó en...

    Director: Karyn Kusama

    Género: Acción

    Actores: Zach Villa

  • Eliminar Amigo 2 (2018) 1080p Latino

    2018
    Eliminar Amigo 2 (2018) 1080p Latino

    4.3 1h 35m 2018

    Un adolescente adquiere una laptop nueva y pronto descubre que el propietario anterior no solo le está...

    Director: Stephen Susco

    Género: Terror

    Actores: Stephanie Nogueras

Comentarios 0