×

¿Problemas para descargar con Mozilla, EDGE? Deshabilita la opción "Abrir vinculos en una pestaña nueva" tal como lo muestra ésta imagen.

Long Shot (2019) WEB-DL 4K HDR Latino – CMHDD

60 vistas

Información de Long Shot (2019) WEB-DL 4K HDR Latino – CMHDD

Datos de la película

  • Calidad: 4K HDR
  • Audio: Español Latino AC3 5.1 WEB-DL - Ingles AC3 5.1 WEB-DL
  • Subtitulos: Español Latino PGS
  • Resolución: 3840x1600p
  • Formato:
  • Codec: H.264
  • Encoder: Dracarys
  • Mediainfo: Clic para Mostrar Datos Ver
  • Format                      : Matroska
    Format version              : Version 4
    File size                   : 13.3 GiB
    Duration                    : 2 h 5 min
    Overall bit rate            : 15.1 Mb/s
    Movie name                  : Long Shot (2019) WEB-DL 4K HDR Latino - CMHDD
    Encoded date                : UTC 2024-01-17 21:06:56
    Writing application         : mkvmerge v47.0.0 ('Black Flag') 64-bit
    Writing library             : libebml v1.3.10 + libmatroska v1.5.2

    Video
    ID                          : 1
    Format                      : HEVC
    Format/Info                 : High Efficiency Video Coding
    Format profile              : Main 10@L5@High
    HDR format                  : SMPTE ST 2086, HDR10 compatible
    Codec ID                    : V_MPEGH/ISO/HEVC
    Duration                    : 2 h 5 min
    Bit rate                    : 14.3 Mb/s
    Width                       : 3 836 pixels
    Height                      : 1 604 pixels
    Display aspect ratio        : 2.40:1
    Frame rate mode             : Constant
    Frame rate                  : 23.976 FPS
    Color space                 : YUV
    Chroma subsampling          : 4:2:0 (Type 2)
    Bit depth                   : 10 bits
    Bits/(Pixel*Frame)          : 0.097
    Stream size                 : 12.6 GiB (95%)
    Default                     : Yes
    Forced                      : No
    Color range                 : Limited
    Color primaries             : BT.2020
    Transfer characteristics    : PQ
    Matrix coefficients         : BT.2020 non-constant
    Mastering display color pri : Display P3
    Mastering display luminance : min: 0.0050 cd/m2, max: 1000 cd/m2
    Maximum Content Light Level : 1072 cd/m2
    Maximum Frame-Average Light : 699 cd/m2

    Audio #1
    ID                          : 2
    Format                      : AC-3
    Format/Info                 : Audio Coding 3
    Commercial name             : Dolby Digital
    Codec ID                    : A_AC3
    Duration                    : 2 h 4 min
    Bit rate mode               : Constant
    Bit rate                    : 384 kb/s
    Channel(s)                  : 6 channels
    Channel layout              : L R C LFE Ls Rs
    Sampling rate               : 48.0 kHz
    Frame rate                  : 31.250 FPS (1536 SPF)
    Compression mode            : Lossy
    Delay relative to video     : 15 s 0 ms
    Stream size                 : 343 MiB (3%)
    Language                    : Spanish
    Service kind                : Complete Main
    Default                     : Yes
    Forced                      : No

    Audio #2
    ID                          : 3
    Format                      : AC-3
    Format/Info                 : Audio Coding 3
    Commercial name             : Dolby Digital
    Codec ID                    : A_AC3
    Duration                    : 2 h 5 min
    Bit rate mode               : Constant
    Bit rate                    : 384 kb/s
    Channel(s)                  : 6 channels
    Channel layout              : L R C LFE Ls Rs
    Sampling rate               : 48.0 kHz
    Frame rate                  : 31.250 FPS (1536 SPF)
    Compression mode            : Lossy
    Stream size                 : 344 MiB (3%)
    Language                    : English
    Service kind                : Complete Main
    Default                     : No
    Forced                      : No

    Text #1
    ID                          : 4
    Format                      : PGS
    Muxing mode                 : zlib
    Codec ID                    : S_HDMV/PGS
    Codec ID/Info               : Picture based subtitle format used on BDs/HD-DVDs
    Duration                    : 1 h 52 min
    Bit rate                    : 771 b/s
    Frame rate                  : 0.008 FPS
    Count of elements           : 54
    Stream size                 : 636 KiB (0%)
    Title                       : Forzados
    Language                    : Spanish
    Default                     : Yes
    Forced                      : No

    Text #2
    ID                          : 5
    Format                      : PGS
    Muxing mode                 : zlib
    Codec ID                    : S_HDMV/PGS
    Codec ID/Info               : Picture based subtitle format used on BDs/HD-DVDs
    Duration                    : 1 h 55 min
    Bit rate                    : 54.9 kb/s
    Frame rate                  : 0.549 FPS
    Count of elements           : 3798
    Stream size                 : 45.3 MiB (0%)
    Language                    : Spanish
    Default                     : No
    Forced                      : No

    Menu
    00:00:00.000                : en:Chapter 01
    00:09:47.712                : en:Chapter 02
    00:20:58.633                : en:Chapter 03
    00:30:51.476                : en:Chapter 04
    00:41:13.765                : en:Chapter 05
    00:49:41.022                : en:Chapter 06
    01:00:37.971                : en:Chapter 07
    01:10:50.542                : en:Chapter 08
    01:20:44.761                : en:Chapter 09
    01:29:54.936                : en:Chapter 10
    01:41:04.439                : en:Chapter 11
    01:51:12.797                : en:Chapter 12
    01:56:35.120                : en:Chapter 13

     

  • Peso: 13.3 GiB

Sinopsis

Cuando Fred Flarsky (Seth Rogen) se reencuentra inesperadamente con el primer amor de su vida, que ahora es una de las mujeres más influyentes del mundo, Charlotte Field (Charlize Theron), logra llamar su atención gracias a su peculiar sentido del humor y a su visión idealista del mundo y de la política. Mientras se prepara para aspirar a la presidencia del país, Charlotte contrata a Fred para que sea el encargado de escribir sus discursos. Sin embargo, Fred se va a encontrar como un pez fuera del agua en el equipo de élite de Charlotte.

Ficha técnica

Video trailer de la película

Enlaces de descarga

Rip de Bluray

Descargar Long Shot (2019) WEB-DL 4K HDR Latino – CMHDD




Aportes de DPeliculasHDmega la pass es:dpeliculashdmega.org Aportes de CinemaniaHD la pass es:cinemaniahdd.com Aportes recientes:cinemaniahdd.net
Guardado en : Comedia , Romance

Películas relacionadas

  • La Duquesa (2008) Full HD 1080p Latino-CMHDD

    La Duquesa (2008) Full HD 1080p Latino-CMHDD

    2008
    La Duquesa (2008) Full HD 1080p Latino-CMHDD

    1h 51m 2008

    Descargar La Duquesa (2008) Full HD 1080p Latino-CMHDD. Hermosa, glamurosa y adorada por el pueblo, Georgiana...

    Director: Saul Dibb

    Género: Drama

    Actores: Thomas Arnold

  • La Duquesa (2008) REMUX 1080p Latino-CMHDD

    La Duquesa (2008) REMUX 1080p Latino-CMHDD

    2008
    La Duquesa (2008) REMUX 1080p Latino-CMHDD

    1h 51m 2008

    Descargar La Duquesa (2008) REMUX 1080p Latino-CMHDD. Hermosa, glamurosa y adorada por el pueblo, Georgiana...

    Director: Saul Dibb

    Género: Drama

    Actores: Thomas Arnold

  • Nada que ver (2023) WEB-DL 1080p Latino

    Nada que ver (2023) WEB-DL 1080p Latino

    2023
    Nada que ver (2023) WEB-DL 1080p Latino

    1h 30m 2023

    Descargar Nada que ver (2023) WEB-DL 1080p Latino. Después de que Carlos tiene la tarea de cuidar a...

    Director: Kenya Marquez

    Género: Comedia

    Actores: Rebecca Jones

descargar Long Shot (2019) WEB-DL 4K HDR Latino – CMHDD 4K HDR 1080p gratis, Long Shot (2019) WEB-DL 4K HDR Latino – CMHDD 4K HDR mega 1 link, Long Shot (2019) WEB-DL 4K HDR Latino – CMHDD 4K HDR pelicula completa, descargar Long Shot (2019) WEB-DL 4K HDR Latino – CMHDD 4K HDR gratis en mega.

Long Shot (2019) WEB-DL 4K HDR Latino – CMHDD pelicula full hd, Long Shot (2019) WEB-DL 4K HDR Latino – CMHDD mega latino, Long Shot (2019) WEB-DL 4K HDR Latino – CMHDD 4k latino, Long Shot (2019) WEB-DL 4K HDR Latino – CMHDD pelicula completa, Long Shot (2019) WEB-DL 4K HDR Latino – CMHDD descargar gratis, descargar Long Shot (2019) WEB-DL 4K HDR Latino – CMHDD pelicula latino, Long Shot (2019) WEB-DL 4K HDR Latino – CMHDD 1 link mega, Long Shot (2019) WEB-DL 4K HDR Latino – CMHDD 1 link google drive, Long Shot (2019) WEB-DL 4K HDR Latino – CMHDD hd 1080p latino.
Comentarios 0