×

¿Problemas para descargar con Mozilla, EDGE? Deshabilita la opción "Abrir vinculos en una pestaña nueva" tal como lo muestra ésta imagen.

Londres bajo fuego (2016) REMUX 1080p Latino

699 vistas

Información de Londres bajo fuego (2016) REMUX 1080p Latino

Datos de la película

  • Calidad: Full 1080p
  • Audio: Español Latino DTS 5.1 BLURAY - Ingles DTS-HD Master 7.1 BLURAY
  • Subtitulos: Español Latino PGS - Ingles PGS
  • Resolución: 1920x1080p
  • Formato: MKV
  • Codec: H.264
  • Encoder: CinefiloCool
  • Mediainfo: Clic para Mostrar Datos Ver
  • Londres bajo fuego (2016) REMUX 1080p Latino-CMHDD.mkv
    Format                      : Matroska
    Format version              : Version 4
    File size                   : 27.0 GiB
    Duration                    : 1 h 38 min
    Overall bit rate mode       : Variable
    Overall bit rate            : 39.2 Mb/s
    Movie name                  : CinemaniaHDD.Net
    Encoded date                : UTC 2019-11-17 00:51:22
    Writing application         : mkvmerge v38.0.0 ('The Silent Type') 64-bit
    Writing library             : libebml v1.3.9 + libmatroska v1.5.2
    Attachments                 : CINEMANIAHD.png

    Video
    ID                          : 1
    Format                      : AVC
    Format/Info                 : Advanced Video Codec
    Format profile              : High@L4.1
    Format settings             : CABAC / 4 Ref Frames
    Format settings, CABAC      : Yes
    Format settings, ReFrames   : 4 frames
    Codec ID                    : V_MPEG4/ISO/AVC
    Duration                    : 1 h 38 min
    Bit rate mode               : Variable
    Bit rate                    : 33.1 Mb/s
    Maximum bit rate            : 35.0 Mb/s
    Width                       : 1 920 pixels
    Height                      : 1 080 pixels
    Display aspect ratio        : 16:9
    Frame rate mode             : Constant
    Frame rate                  : 23.976 (24000/1001) FPS
    Color space                 : YUV
    Chroma subsampling          : 4:2:0
    Bit depth                   : 8 bits
    Scan type                   : Progressive
    Bits/(Pixel*Frame)          : 0.667
    Stream size                 : 22.9 GiB (85%)
    Title                       : Full HD1080p [REMUX]
    Default                     : Yes
    Forced                      : No

    Audio #1
    ID                          : 2
    Format                      : DTS
    Format/Info                 : Digital Theater Systems
    Codec ID                    : A_DTS
    Duration                    : 1 h 38 min
    Bit rate mode               : Constant
    Bit rate                    : 768 kb/s
    Channel(s)                  : 6 channels
    Channel layout              : C L R Ls Rs LFE
    Sampling rate               : 48.0 kHz
    Frame rate                  : 93.750 FPS (512 SPF)
    Bit depth                   : 24 bits
    Compression mode            : Lossy
    Stream size                 : 542 MiB (2%)
    Title                       : DTS_5.1_Bluray_Esp
    Language                    : Spanish
    Default                     : Yes
    Forced                      : Yes

    Audio #2
    ID                          : 3
    Format                      : DTS XLL X
    Format/Info                 : Digital Theater Systems
    Commercial name             : DTS-HD Master Audio
    Codec ID                    : A_DTS
    Duration                    : 1 h 38 min
    Bit rate mode               : Variable
    Bit rate                    : 4 590 kb/s
    Channel(s)                  : 8 channels
    Channel(s)_Original         : Object Based
    Channel layout              : Object Based
    Sampling rate               : 48.0 kHz
    Frame rate                  : 93.750 FPS (512 SPF)
    Bit depth                   : 24 bits
    Stream size                 : 3.16 GiB (12%)
    Title                       : DTS-HD_7.1_Bluray_Eng
    Language                    : English
    Default                     : No
    Forced                      : No

    Audio #3
    ID                          : 4
    Format                      : AC-3
    Format/Info                 : Audio Coding 3
    Commercial name             : Dolby Digital
    Codec ID                    : A_AC3
    Duration                    : 1 h 38 min
    Bit rate mode               : Constant
    Bit rate                    : 640 kb/s
    Channel(s)                  : 6 channels
    Channel layout              : L R C LFE Ls Rs
    Sampling rate               : 48.0 kHz
    Frame rate                  : 31.250 FPS (1536 SPF)
    Bit depth                   : 16 bits
    Compression mode            : Lossy
    Stream size                 : 452 MiB (2%)
    Title                       : AC3_5.1_Bluray_Esp
    Language                    : Spanish
    Service kind                : Complete Main
    Default                     : No
    Forced                      : No

    Text #1
    ID                          : 5
    Format                      : PGS
    Muxing mode                 : zlib
    Codec ID                    : S_HDMV/PGS
    Codec ID/Info               : Picture based subtitle format used on BDs/HD-DVDs
    Duration                    : 1 h 38 min
    Bit rate                    : 1 698 b/s
    Count of elements           : 92
    Stream size                 : 1.20 MiB (0%)
    Title                       : Sub_Forzados [PGS]
    Language                    : Spanish
    Default                     : Yes
    Forced                      : Yes

    Text #2
    ID                          : 6
    Format                      : PGS
    Muxing mode                 : zlib
    Codec ID                    : S_HDMV/PGS
    Codec ID/Info               : Picture based subtitle format used on BDs/HD-DVDs
    Duration                    : 1 h 38 min
    Bit rate                    : 28.6 kb/s
    Count of elements           : 2008
    Stream size                 : 20.2 MiB (0%)
    Title                       : Sub_Esp [PGS]
    Language                    : Spanish
    Default                     : No
    Forced                      : No

    Text #3
    ID                          : 7
    Format                      : PGS
    Muxing mode                 : zlib
    Codec ID                    : S_HDMV/PGS
    Codec ID/Info               : Picture based subtitle format used on BDs/HD-DVDs
    Duration                    : 1 h 31 min
    Bit rate                    : 35.6 kb/s
    Count of elements           : 2376
    Stream size                 : 23.3 MiB (0%)
    Title                       : Sub_Eng [PGS]
    Language                    : English
    Default                     : No
    Forced                      : No

    Text #4
    ID                          : 8
    Format                      : UTF-8
    Codec ID                    : S_TEXT/UTF8
    Codec ID/Info               : UTF-8 Plain Text
    Duration                    : 1 min 22 s
    Bit rate                    : 69 b/s
    Count of elements           : 12
    Stream size                 : 723 Bytes (0%)
    Title                       : Sub_Forzados
    Language                    : Spanish
    Default                     : No
    Forced                      : No

    Text #5
    ID                          : 9
    Format                      : UTF-8
    Codec ID                    : S_TEXT/UTF8
    Codec ID/Info               : UTF-8 Plain Text
    Duration                    : 1 h 31 min
    Bit rate                    : 49 b/s
    Count of elements           : 1003
    Stream size                 : 33.2 KiB (0%)
    Title                       : Sub_Esp
    Language                    : Spanish
    Default                     : No
    Forced                      : No

    Menu
    00:00:00.000                : en:00:00:00.000
    00:05:23.281                : en:00:05:23.281
    00:10:12.987                : en:00:10:12.987
    00:15:53.202                : en:00:15:53.202
    00:20:13.546                : en:00:20:13.546
    00:23:41.462                : en:00:23:41.462
    00:28:51.229                : en:00:28:51.229
    00:33:30.383                : en:00:33:30.383
    00:39:37.208                : en:00:39:37.208
    00:45:05.286                : en:00:45:05.286
    00:49:43.105                : en:00:49:43.105
    00:53:26.954                : en:00:53:26.954
    00:58:40.392                : en:00:58:40.392
    01:02:42.467                : en:01:02:42.467
    01:08:22.598                : en:01:08:22.598
    01:12:51.075                : en:01:12:51.075
    01:17:35.401                : en:01:17:35.401
    01:20:58.270                : en:01:20:58.270
    01:26:11.500                : en:01:26:11.500
    01:31:42.247                : en:01:31:42.247

  • Peso: 27.0 GiB

Sinopsis

Descargar Londres bajo fuego (2016) REMUX 1080p Latino. En un mundo gobernado por la injusticia y el caos, aparece la figura del presidente de los Estados Unidos que junto a su portavoz Trumbull, liderarán una lucha interna por las libertades de todos los americanos. Sin embargo, se producirá un intento de derrocamiento por parte de fuerzas espías para acabar con el primer ministro inglés. Esto podría significar un intento de eliminar la paz mundial a toda costa. Para ello el presidente contará con la inestimable ayuda de su guardaespaldas. Mike Benning agente secreto del MI6 liderará una contención para intentar acabar con esta revolución. Benning no estará sólo ya que volverá a encontrar apoyo de Trumbull, especializado en técnicas paramilitares.

Ficha técnica

Video trailer de la película

Enlaces de descarga

Rip de Bluray

Descargar Londres bajo fuego (2016) REMUX 1080p Latino




Aportes de DPeliculasHDmega la pass es:dpeliculashdmega.org Aportes de CinemaniaHD la pass es:cinemaniahdd.com
Guardado en : Acción , Remux , Suspenso

Películas relacionadas

descargar Londres bajo fuego (2016) REMUX 1080p Latino Full 1080p 1080p gratis, Londres bajo fuego (2016) REMUX 1080p Latino Full 1080p mega 1 link, Londres bajo fuego (2016) REMUX 1080p Latino Full 1080p pelicula completa, descargar Londres bajo fuego (2016) REMUX 1080p Latino Full 1080p gratis en mega.

Londres bajo fuego (2016) REMUX 1080p Latino pelicula full hd, Londres bajo fuego (2016) REMUX 1080p Latino mega latino, Londres bajo fuego (2016) REMUX 1080p Latino 4k latino, Londres bajo fuego (2016) REMUX 1080p Latino pelicula completa, Londres bajo fuego (2016) REMUX 1080p Latino descargar gratis, descargar Londres bajo fuego (2016) REMUX 1080p Latino pelicula latino, Londres bajo fuego (2016) REMUX 1080p Latino 1 link mega, Londres bajo fuego (2016) REMUX 1080p Latino 1 link google drive, Londres bajo fuego (2016) REMUX 1080p Latino hd 1080p latino.
Comentarios 1
  • Octavio Cesar posadas Martinez - 17 noviembre, 2019

    Gracias por londres bajo fuego BDRemux, saludos