×

¿Problemas para descargar con Mozilla, EDGE? Deshabilita la opción "Abrir vinculos en una pestaña nueva" tal como lo muestra ésta imagen.

London Has Fallen (2016) REMUX 1080p Latino – CMHDD

118 vistas

Información de London Has Fallen (2016) REMUX 1080p Latino – CMHDD

Datos de la película

  • Calidad: Full 1080p
  • Audio: Español Latino DTS 5.1 BLURAY - Ingles DTS-HD Master 7.1 BLURAY
  • Subtitulos: Español Latino PGS
  • Resolución: 1920x1080p
  • Formato: MKV
  • Codec: H.264
  • Encoder: Dracarys
  • Mediainfo: Clic para Mostrar Datos Ver
  • Format                      : Matroska
    Format version              : Version 4
    File size                   : 26.6 GiB
    Duration                    : 1 h 38 min
    Overall bit rate mode       : Variable
    Overall bit rate            : 38.5 Mb/s
    Movie name                  : London Has Fallen (2016) REMUX 1080p Latino - CMHDD
    Encoded date                : UTC 2023-08-30 14:44:04
    Writing application         : mkvmerge v47.0.0 ('Black Flag') 64-bit
    Writing library             : libebml v1.3.10 + libmatroska v1.5.2
    Cover                       : Yes
    Attachments                 : cover.jpg

    Video
    ID                          : 1
    ID in the original source m : 4113 (0x1011)
    Format                      : AVC
    Format/Info                 : Advanced Video Codec
    Format profile              : High@L4.1
    Format settings             : CABAC / 4 Ref Frames
    Format settings, CABAC      : Yes
    Format settings, Reference  : 4 frames
    Codec ID                    : V_MPEG4/ISO/AVC
    Duration                    : 1 h 38 min
    Bit rate mode               : Variable
    Bit rate                    : 33.1 Mb/s
    Maximum bit rate            : 35.0 Mb/s
    Width                       : 1 920 pixels
    Height                      : 1 080 pixels
    Display aspect ratio        : 16:9
    Frame rate mode             : Constant
    Frame rate                  : 23.976 (24000/1001) FPS
    Color space                 : YUV
    Chroma subsampling          : 4:2:0
    Bit depth                   : 8 bits
    Scan type                   : Progressive
    Bits/(Pixel*Frame)          : 0.667
    Stream size                 : 22.9 GiB (86%)
    Default                     : Yes
    Forced                      : No
    Original source medium      : Blu-ray

    Audio #1
    ID                          : 2
    ID in the original source m : 4352 (0x1100)
    Format                      : DTS XLL X
    Format/Info                 : Digital Theater Systems
    Commercial name             : DTS-HD Master Audio
    Codec ID                    : A_DTS
    Duration                    : 1 h 38 min
    Bit rate mode               : Variable
    Bit rate                    : 4 590 kb/s
    Channel(s)                  : 8 channels
    Channel(s)_Original         : Object Based
    ChannelLayout_Original      : Object Based
    Sampling rate               : 48.0 kHz
    Frame rate                  : 93.750 FPS (512 SPF)
    Bit depth                   : 24 bits
    Stream size                 : 3.16 GiB (12%)
    Language                    : English
    Default                     : No
    Forced                      : No
    Original source medium      : Blu-ray

    Audio #2
    ID                          : 3
    ID in the original source m : 4354 (0x1102)
    Format                      : DTS
    Format/Info                 : Digital Theater Systems
    Codec ID                    : A_DTS
    Duration                    : 1 h 38 min
    Bit rate mode               : Constant
    Bit rate                    : 768 kb/s
    Channel(s)                  : 6 channels
    Channel layout              : C L R Ls Rs LFE
    Sampling rate               : 48.0 kHz
    Frame rate                  : 93.750 FPS (512 SPF)
    Bit depth                   : 24 bits
    Compression mode            : Lossy
    Stream size                 : 542 MiB (2%)
    Language                    : Spanish
    Default                     : Yes
    Forced                      : No
    Original source medium      : Blu-ray

    Text #1
    ID                          : 4
    ID in the original source m : 4609 (0x1201)
    Format                      : PGS
    Muxing mode                 : zlib
    Codec ID                    : S_HDMV/PGS
    Codec ID/Info               : Picture based subtitle format used on BDs/HD-DVDs
    Duration                    : 1 h 38 min
    Bit rate                    : 28.6 kb/s
    Frame rate                  : 0.339 FPS
    Count of elements           : 2008
    Stream size                 : 20.2 MiB (0%)
    Language                    : Spanish
    Default                     : No
    Forced                      : No
    Original source medium      : Blu-ray

    Text #2
    ID                          : 5
    ID in the original source m : 4611 (0x1203)
    Format                      : PGS
    Muxing mode                 : zlib
    Codec ID                    : S_HDMV/PGS
    Codec ID/Info               : Picture based subtitle format used on BDs/HD-DVDs
    Duration                    : 1 h 38 min
    Bit rate                    : 1 698 b/s
    Frame rate                  : 0.016 FPS
    Count of elements           : 92
    Stream size                 : 1.20 MiB (0%)
    Language                    : Spanish
    Default                     : Yes
    Forced                      : No
    Original source medium      : Blu-ray

    Menu
    00:00:00.000                : en:Capítulo 01
    00:05:23.281                : en:Capítulo 02
    00:10:12.987                : en:Capítulo 03
    00:15:53.202                : en:Capítulo 04
    00:20:13.545                : en:Capítulo 05
    00:23:41.461                : en:Capítulo 06
    00:28:51.229                : en:Capítulo 07
    00:33:30.383                : en:Capítulo 08
    00:39:37.208                : en:Capítulo 09
    00:45:05.285                : en:Capítulo 10
    00:49:43.105                : en:Capítulo 11
    00:53:26.953                : en:Capítulo 12
    00:58:40.391                : en:Capítulo 13
    01:02:42.467                : en:Capítulo 14
    01:08:22.598                : en:Capítulo 15
    01:12:51.075                : en:Capítulo 16
    01:17:35.400                : en:Capítulo 17
    01:20:58.270                : en:Capítulo 18
    01:26:11.499                : en:Capítulo 19
    01:31:42.246                : en:Capítulo 20

  • Peso: 26.6 GiB

Sinopsis

En un mundo gobernado por la injusticia y el caos, aparece la figura del presidente de los Estados Unidos que junto a su portavoz Trumbull, liderarán una lucha interna por las libertades de todos los americanos. Sin embargo, se producirá un intento de derrocamiento por parte de fuerzas espías para acabar con el primer ministro inglés. Esto podría significar un intento de eliminar la paz mundial a toda costa. Para ello el presidente contará con la inestimable ayuda de su guardaespaldas. Mike Benning agente secreto del MI6 liderará una contención para intentar acabar con esta revolución. Benning no estará sólo ya que volverá a encontrar apoyo de Trumbull, especializado en técnicas paramilitares.

Ficha técnica

Video trailer de la película

Enlaces de descarga

Rip de Bluray

Descargar London Has Fallen (2016) REMUX 1080p Latino – CMHDD


Aportes de DPeliculasHDmega la pass es:dpeliculashdmega.org Aportes de CinemaniaHD la pass es:cinemaniahdd.com Aportes recientes:cinemaniahdd.net
Guardado en : Acción , Suspenso

Películas relacionadas

  • Combate clandestino (2024) AMZN WEB-DL 1080p Latino

    Combate clandestino (2024) AMZN WEB-DL 1080p Latino

    2024
    Combate clandestino (2024) AMZN WEB-DL 1080p Latino

    1h 30m 2024

    Descargar Combate clandestino (2024) AMZN WEB-DL 1080p Latino. Un ex soldado a la deriva se convierte...

    Director: Christian Sesma

    Género: Acción

    Actores: Tyler Wombles

  • ¡Patos! (2023) HD 1080p Latino

    ¡Patos! (2023) HD 1080p Latino

    2023
    ¡Patos! (2023) HD 1080p Latino

    1h 23m 2023

    Descargar ¡Patos! (2023) HD 1080p Latino. Después de que una familia de patos migratorios aterriza...

    Director: Guy-Laurent Homsy

    Género: Acción

    Actores: Zeno Robinson

  • ¡Patos! (2023) PLACEBO Full HD 1080p Latino

    ¡Patos! (2023) PLACEBO Full HD 1080p Latino

    2023
    ¡Patos! (2023) PLACEBO Full HD 1080p Latino

    1h 23m 2023

    Descargar ¡Patos! (2023) PLACEBO Full HD 1080p Latino. Después de que una familia de patos migratorios...

    Director: Guy-Laurent Homsy

    Género: Acción

    Actores: Zeno Robinson

  • ¡Patos! (2023) REMUX 1080p Latino

    ¡Patos! (2023) REMUX 1080p Latino

    2023
    ¡Patos! (2023) REMUX 1080p Latino

    1h 23m 2023

    Descargar ¡Patos! (2023) REMUX 1080p Latino. Después de que una familia de patos migratorios aterriza...

    Director: Guy-Laurent Homsy

    Género: Acción

    Actores: Zeno Robinson

descargar London Has Fallen (2016) REMUX 1080p Latino – CMHDD Full 1080p 1080p gratis, London Has Fallen (2016) REMUX 1080p Latino – CMHDD Full 1080p mega 1 link, London Has Fallen (2016) REMUX 1080p Latino – CMHDD Full 1080p pelicula completa, descargar London Has Fallen (2016) REMUX 1080p Latino – CMHDD Full 1080p gratis en mega.

London Has Fallen (2016) REMUX 1080p Latino – CMHDD pelicula full hd, London Has Fallen (2016) REMUX 1080p Latino – CMHDD mega latino, London Has Fallen (2016) REMUX 1080p Latino – CMHDD 4k latino, London Has Fallen (2016) REMUX 1080p Latino – CMHDD pelicula completa, London Has Fallen (2016) REMUX 1080p Latino – CMHDD descargar gratis, descargar London Has Fallen (2016) REMUX 1080p Latino – CMHDD pelicula latino, London Has Fallen (2016) REMUX 1080p Latino – CMHDD 1 link mega, London Has Fallen (2016) REMUX 1080p Latino – CMHDD 1 link google drive, London Has Fallen (2016) REMUX 1080p Latino – CMHDD hd 1080p latino.
Comentarios 0