×

¿Problemas para descargar con Mozilla, EDGE? Deshabilita la opción "Abrir vinculos en una pestaña nueva" tal como lo muestra ésta imagen.

London Fields (2018) REMUX 1080p Latino

541 vistas

Información de London Fields (2018) REMUX 1080p Latino

Datos de la película

  • Calidad: Full 1080p
  • Audio: Se especifica abajo de la Sinopsis
  • Subtitulos: Español Latino SRT - Ingles SRT
  • Resolución: 1920x1080p
  • Formato: MKV
  • Codec: H.264
  • Encoder: CinefiloCool
  • Mediainfo: Clic para Mostrar Datos Ver
  • London Fields (2018) REMUX 1080p Latino-CMHDD.mkv
    Format                      : Matroska
    Format version              : Version 4
    File size                   : 25.7 GiB
    Duration                    : 1 h 47 min
    Overall bit rate mode       : Variable
    Overall bit rate            : 34.1 Mb/s
    Movie name                  : CinemaniaHDD.Net
    Encoded date                : UTC 2020-01-25 04:26:46
    Writing application         : mkvmerge v42.0.0 ('Overtime') 64-bit
    Writing library             : libebml v1.3.10 + libmatroska v1.5.2
    Attachments                 : CINEMANIAHD.png

    Video
    ID                          : 1
    Format                      : AVC
    Format/Info                 : Advanced Video Codec
    Format profile              : High@L4.1
    Format settings             : CABAC / 4 Ref Frames
    Format settings, CABAC      : Yes
    Format settings, ReFrames   : 4 frames
    Codec ID                    : V_MPEG4/ISO/AVC
    Duration                    : 1 h 47 min
    Bit rate mode               : Variable
    Bit rate                    : 29.7 Mb/s
    Maximum bit rate            : 35.0 Mb/s
    Width                       : 1 920 pixels
    Height                      : 1 080 pixels
    Display aspect ratio        : 16:9
    Frame rate mode             : Constant
    Frame rate                  : 23.976 (24000/1001) FPS
    Standard                    : NTSC
    Color space                 : YUV
    Chroma subsampling          : 4:2:0
    Bit depth                   : 8 bits
    Scan type                   : Progressive
    Bits/(Pixel*Frame)          : 0.598
    Stream size                 : 22.4 GiB (87%)
    Title                       : Full HD1080p [REMUX]
    Default                     : Yes
    Forced                      : Yes
    Color range                 : Limited
    Color primaries             : BT.709
    Transfer characteristics    : BT.709
    Matrix coefficients         : BT.709

    Audio #1
    ID                          : 2
    Format                      : AC-3
    Format/Info                 : Audio Coding 3
    Commercial name             : Dolby Digital
    Codec ID                    : A_AC3
    Duration                    : 1 h 47 min
    Bit rate mode               : Constant
    Bit rate                    : 384 kb/s
    Channel(s)                  : 2 channels
    Channel layout              : L R
    Sampling rate               : 48.0 kHz
    Frame rate                  : 31.250 FPS (1536 SPF)
    Bit depth                   : 16 bits
    Compression mode            : Lossy
    Stream size                 : 296 MiB (1%)
    Title                       : AC3_2.0_Capt_Esp
    Language                    : Spanish
    Service kind                : Complete Main
    Default                     : Yes
    Forced                      : Yes

    Audio #2
    ID                          : 3
    Format                      : MLP FBA
    Format/Info                 : Meridian Lossless Packing FBA
    Commercial name             : Dolby TrueHD
    Codec ID                    : A_TRUEHD
    Duration                    : 1 h 47 min
    Bit rate mode               : Variable
    Bit rate                    : 3 274 kb/s
    Maximum bit rate            : 5 109 kb/s
    Channel(s)                  : 6 channels
    Channel layout              : L R C LFE Ls Rs
    Sampling rate               : 48.0 kHz
    Frame rate                  : 1 200.000 FPS (40 SPF)
    Compression mode            : Lossless
    Stream size                 : 2.47 GiB (10%)
    Title                       : THD_5.1_Bluray_Eng
    Language                    : English
    Default                     : No
    Forced                      : No

    Audio #3
    ID                          : 4
    Format                      : AC-3
    Format/Info                 : Audio Coding 3
    Commercial name             : Dolby Digital
    Codec ID                    : A_AC3
    Duration                    : 1 h 47 min
    Bit rate mode               : Constant
    Bit rate                    : 640 kb/s
    Channel(s)                  : 6 channels
    Channel layout              : L R C LFE Ls Rs
    Sampling rate               : 48.0 kHz
    Frame rate                  : 31.250 FPS (1536 SPF)
    Bit depth                   : 16 bits
    Compression mode            : Lossy
    Stream size                 : 494 MiB (2%)
    Title                       : AC3_5.1_Bluray_Eng
    Language                    : English
    Service kind                : Complete Main
    Default                     : No
    Forced                      : No

    Text #1
    ID                          : 5
    Format                      : UTF-8
    Codec ID                    : S_TEXT/UTF8
    Codec ID/Info               : UTF-8 Plain Text
    Duration                    : 1 h 42 min
    Bit rate                    : 61 b/s
    Count of elements           : 1463
    Stream size                 : 46.0 KiB (0%)
    Title                       : Sub_Esp
    Language                    : Spanish
    Default                     : No
    Forced                      : No

    Text #2
    ID                          : 6
    Format                      : UTF-8
    Codec ID                    : S_TEXT/UTF8
    Codec ID/Info               : UTF-8 Plain Text
    Duration                    : 1 h 45 min
    Bit rate                    : 53 b/s
    Count of elements           : 1372
    Stream size                 : 41.6 KiB (0%)
    Title                       : Sub_Eng
    Language                    : English
    Default                     : No
    Forced                      : No

    Menu
    00:00:00.000                : en:Chapter 01
    00:15:57.498                : en:Chapter 02
    00:28:36.006                : en:Chapter 03
    00:41:57.890                : en:Chapter 04
    00:53:24.326                : en:Chapter 05
    01:07:31.589                : en:Chapter 06
    01:20:45.632                : en:Chapter 07
    01:42:51.332                : en:Chapter 08

  • Peso: 25.7 GiB

Sinopsis

Descargar London Fields (2018) REMUX 1080p Latino. Narra la historia de Nicola Six, una irresistible femme fatale que tiene el presentimiento de que va a ser asesinada. Nicola mantiene relaciones con varios hombres, todos están locos por ella, pero sabe que uno de ellos será su asesino.

Audio Español Latino AC3 2.0 Capturado – Ingles TreueHD + AC3 5.1 Bluray

Ficha técnica

Video trailer de la película

Enlaces de descarga

Rip de Bluray

Descargar London Fields (2018) REMUX 1080p Latino




Aportes de DPeliculasHDmega la pass es:dpeliculashdmega.org Aportes de CinemaniaHD la pass es:cinemaniahdd.com
Guardado en : Crimen , Drama , Misterio , Remux , Suspenso

Películas relacionadas

descargar London Fields (2018) REMUX 1080p Latino Full 1080p 1080p gratis, London Fields (2018) REMUX 1080p Latino Full 1080p mega 1 link, London Fields (2018) REMUX 1080p Latino Full 1080p pelicula completa, descargar London Fields (2018) REMUX 1080p Latino Full 1080p gratis en mega.

London Fields (2018) REMUX 1080p Latino pelicula full hd, London Fields (2018) REMUX 1080p Latino mega latino, London Fields (2018) REMUX 1080p Latino 4k latino, London Fields (2018) REMUX 1080p Latino pelicula completa, London Fields (2018) REMUX 1080p Latino descargar gratis, descargar London Fields (2018) REMUX 1080p Latino pelicula latino, London Fields (2018) REMUX 1080p Latino 1 link mega, London Fields (2018) REMUX 1080p Latino 1 link google drive, London Fields (2018) REMUX 1080p Latino hd 1080p latino.
Comentarios 0