×

¿Problemas para descargar con Mozilla, EDGE? Deshabilita la opción "Abrir vinculos en una pestaña nueva" tal como lo muestra ésta imagen.

Loki (2023) Temporada 2 WEB-DL 1080p Latino

384 vistas

Información de Loki (2023) Temporada 2 WEB-DL 1080p Latino

Datos de la película

  • Calidad: WEBDL
  • Audio: Se especifica abajo de la Sinopsis
  • Subtitulos: Español Latino SRT- FORZADOS SRT
  • Resolución: 1920x1080p
  • Formato: MKV
  • Codec: H.264
  • Encoder: Melkor
  • Mediainfo: Clic para Mostrar Datos Ver
  • Loki S02E01 (2023) WebDL 1080p Latino.mkv
    Format                      : Matroska
    Format version              : Version 4
    File size                   : 2.31 GiB
    Duration                    : 45 min 15 s
    Overall bit rate mode       : Variable
    Overall bit rate            : 7 307 kb/s
    Movie name                  : CinemaniaHDD.Net
    Encoded date                : UTC 2023-10-06 01:14:45
    Writing application         : mkvmerge v56.1.0 ('My Friend') 64-bit
    Writing library             : libebml v1.4.2 + libmatroska v1.6.4
    Attachments                 : CINEMANIAHD.png
    Site                        : CinemaniaHDD.Net
    Uploader                    : Melkor

    Video
    ID                          : 1
    Format                      : AVC
    Format/Info                 : Advanced Video Codec
    Format profile              : High@L4
    Format settings             : CABAC / 4 Ref Frames
    Format settings, CABAC      : Yes
    Format settings, Reference  : 4 frames
    Codec ID                    : V_MPEG4/ISO/AVC
    Duration                    : 45 min 15 s
    Bit rate mode               : Variable
    Bit rate                    : 6 281 kb/s
    Maximum bit rate            : 12.7 Mb/s
    Width                       : 1 920 pixels
    Height                      : 1 080 pixels
    Display aspect ratio        : 16:9
    Frame rate mode             : Constant
    Frame rate                  : 24.000 FPS
    Color space                 : YUV
    Chroma subsampling          : 4:2:0
    Bit depth                   : 8 bits
    Scan type                   : Progressive
    Bits/(Pixel*Frame)          : 0.126
    Stream size                 : 1.99 GiB (86%)
    Title                       : WEB HD1080p [CinemaniaHDD]
    Language                    : English
    Default                     : Yes
    Forced                      : No
    Color range                 : Limited
    Color primaries             : BT.709
    Transfer characteristics    : BT.709
    Matrix coefficients         : BT.709

    Audio #1
    ID                          : 2
    Format                      : E-AC-3
    Format/Info                 : Enhanced AC-3
    Commercial name             : Dolby Digital Plus
    Codec ID                    : A_EAC3
    Duration                    : 45 min 15 s
    Bit rate mode               : Constant
    Bit rate                    : 256 kb/s
    Channel(s)                  : 6 channels
    Channel layout              : L R C LFE Ls Rs
    Sampling rate               : 48.0 kHz
    Frame rate                  : 31.250 FPS (1536 SPF)
    Compression mode            : Lossy
    Stream size                 : 82.9 MiB (4%)
    Title                       : Español Latino [CinemaniaHDD]
    Language                    : Spanish
    Service kind                : Complete Main
    Default                     : Yes
    Forced                      : No

    Audio #2
    ID                          : 3
    Format                      : E-AC-3 JOC
    Format/Info                 : Enhanced AC-3 with Joint Object Coding
    Commercial name             : Dolby Digital Plus with Dolby Atmos
    Codec ID                    : A_EAC3
    Duration                    : 45 min 15 s
    Bit rate mode               : Constant
    Bit rate                    : 768 kb/s
    Channel(s)                  : 6 channels
    Channel layout              : L R C LFE Ls Rs
    Sampling rate               : 48.0 kHz
    Frame rate                  : 31.250 FPS (1536 SPF)
    Compression mode            : Lossy
    Stream size                 : 249 MiB (11%)
    Title                       : Ingles [CinemaniaHDD]
    Language                    : English
    Service kind                : Complete Main
    Default                     : No
    Forced                      : No
    Complexity index            : 16
    Number of dynamic objects   : 15
    Bed channel count           : 1 channel
    Bed channel configuration   : LFE

    Text #1
    ID                          : 4
    Format                      : UTF-8
    Codec ID                    : S_TEXT/UTF8
    Codec ID/Info               : UTF-8 Plain Text
    Duration                    : 41 min 22 s
    Bit rate                    : 0 b/s
    Count of elements           : 9
    Stream size                 : 234 Bytes (0%)
    Title                       : Forzados-SRT [CinemaniaHDD]
    Language                    : Spanish
    Default                     : Yes
    Forced                      : No

    Text #2
    ID                          : 5
    Format                      : UTF-8
    Codec ID                    : S_TEXT/UTF8
    Codec ID/Info               : UTF-8 Plain Text
    Duration                    : 45 min 7 s
    Bit rate                    : 62 b/s
    Count of elements           : 583
    Stream size                 : 20.7 KiB (0%)
    Title                       : Español-SRT [CinemaniaHDD]
    Language                    : Spanish
    Default                     : No
    Forced                      : No

    Text #3
    ID                          : 6
    Format                      : UTF-8
    Codec ID                    : S_TEXT/UTF8
    Codec ID/Info               : UTF-8 Plain Text
    Duration                    : 42 min 32 s
    Bit rate                    : 65 b/s
    Count of elements           : 578
    Stream size                 : 20.4 KiB (0%)
    Title                       : Ingles-SRT [CinemaniaHDD]
    Language                    : English
    Default                     : No
    Forced                      : No

    Menu
    00:00:04.000                : Recap
    00:01:44.667                : Scene 1
    00:09:32.667                : Scene 2
    00:16:20.667                : Scene 3
    00:23:24.667                : Scene 4
    00:31:59.542                : Scene 5
    00:39:04.917                : Credits
    00:41:25.625                : Post-Credits Scene

  • Peso: 2.3 GiB Aprox C/U -- 14.92 GiB -- 6 Chapters

Sinopsis

Descargar Loki (2023) Temporada 2 WEB-DL 1080p Latino. Loki es llevado ante la misteriosa organización llamada AVT (Autoridad de Variación Temporal) después de los acontecimientos ocurridos en «Avengers: Endgame (2019)» y se le da a elegir enfrentarse a ser borrado de la existencia debido a que es una «variante de tiempo» o ayudar a arreglar la línea de tiempo y detener una amenaza mayor.

Audio Español Latino EAC3 5.1 D+ – Ingles EAC3 JOC 5.1 D+
6/6 Capítulos [Temporada completa]

Ficha técnica

Video trailer de la película

Enlaces de descarga

Rip de Bluray

Descargar Loki (2023) Temporada 2 WEB-DL 1080p Latino




Aportes de DPeliculasHDmega la pass es:dpeliculashdmega.org Aportes de CinemaniaHD la pass es:cinemaniahdd.com Aportes recientes:cinemaniahdd.net
Guardado en : Drama , Sci-Fi & Fantasy , Series

Películas relacionadas

  • El Oso (2022) Temporada 2 WEB-DL 1080p Latino

    El Oso (2022) Temporada 2 WEB-DL 1080p Latino

    2022
    El Oso (2022) Temporada 2 WEB-DL 1080p Latino

    0h 0m 2022

    Descargar El Oso (2022) Temporada 2 WEB-DL 1080p Latino. Carmy, un joven chef de alta cocina, vuelve...

    Director: Christopher Storer

    Género: Comedia

    Actores: Matty Matheson

  • El Oso (2022) Temporada 1 WEB-DL 1080p Latino

    El Oso (2022) Temporada 1 WEB-DL 1080p Latino

    2022
    El Oso (2022) Temporada 1 WEB-DL 1080p Latino

    0h 0m 2022

    Descargar El Oso (2022) Temporada 1 WEB-DL 1080p Latino. Carmy, un joven chef de alta cocina, vuelve...

    Director: Christopher Storer

    Género: Comedia

    Actores: Matty Matheson

  • Wolves (2022) AMZN WEB-DL 1080p Latino

    Wolves (2022) AMZN WEB-DL 1080p Latino

    2022
    Wolves (2022) AMZN WEB-DL 1080p Latino

    1h 43m 2022

    Un joven solitario se depara con una serie de crímenes sin resolver, que involucran animales mutilados...

    Director: Danny Dunlop

    Género: Crimen

    Actores: Rod Keith

  • The Acolyte (2024) Temporada 1 WEB-DL 1080p Latino

    The Acolyte (2024) Temporada 1 WEB-DL 1080p Latino

    2024
    The Acolyte (2024) Temporada 1 WEB-DL 1080p Latino

    0h 0m 2024

    Descargar The Acolyte (2024) Temporada 1 WEB-DL 1080p Latino. Una investigación sobre una impactante...

    Director: Leslye Headland

    Género: Misterio

    Actores: 이정재

descargar Loki (2023) Temporada 2 WEB-DL 1080p Latino WEBDL 1080p gratis, Loki (2023) Temporada 2 WEB-DL 1080p Latino WEBDL mega 1 link, Loki (2023) Temporada 2 WEB-DL 1080p Latino WEBDL serie completa, descargar Loki (2023) Temporada 2 WEB-DL 1080p Latino WEBDL gratis en mega.

Loki (2023) Temporada 2 WEB-DL 1080p Latino pelicula full hd, Loki (2023) Temporada 2 WEB-DL 1080p Latino mega latino, Loki (2023) Temporada 2 WEB-DL 1080p Latino 4k latino, Loki (2023) Temporada 2 WEB-DL 1080p Latino pelicula completa, Loki (2023) Temporada 2 WEB-DL 1080p Latino descargar gratis, descargar Loki (2023) Temporada 2 WEB-DL 1080p Latino pelicula latino, Loki (2023) Temporada 2 WEB-DL 1080p Latino 1 link mega, Loki (2023) Temporada 2 WEB-DL 1080p Latino 1 link google drive, Loki (2023) Temporada 2 WEB-DL 1080p Latino hd 1080p latino.
Comentarios 0