La estafa de los Logan (2017) REMUX 1080p Latino

26 vistas
1 estrella2 estrellas3 estrellas4 estrellas5 estrellas (Ninguna valoración todavía)
Cargando...

Información de La estafa de los Logan (2017) REMUX 1080p Latino

Datos de la película

  • Calidad: Full 1080p
  • Audio: Se especifica abajo de la Sinopsis
  • Subtitulos: Español Latino PGS - Ingles PGS
  • Resolución: 1920x1080p
  • Formato: MKV
  • Codec: H.264
  • Encoder: CinefiloCool
  • Mediainfo: Clic para Mostrar Datos Ver
  • La Estafa De Los Logan (2017) REMUX 1080p Latino-CMHDD.mkv
    Format                      : Matroska
    Format version              : Version 4
    File size                   : 29.5 GiB
    Duration                    : 1 h 59 min
    Overall bit rate mode       : Variable
    Overall bit rate            : 35.5 Mb/s
    Movie name                  : Logan Lucky (2017) CinemaniaHDD.Net
    Encoded date                : UTC 2021-01-26 09:01:55
    Writing application         : mkvmerge v51.0.0 ('I Wish') 64-bit
    Writing library             : libebml v1.4.0 + libmatroska v1.6.2
    Attachments                 : CINEMANIAHD.png

    Video
    ID                          : 1
    Format                      : AVC
    Format/Info                 : Advanced Video Codec
    Format profile              : High@L4.1
    Format settings             : CABAC / 4 Ref Frames
    Format settings, CABAC      : Yes
    Format settings, Reference  : 4 frames
    Codec ID                    : V_MPEG4/ISO/AVC
    Duration                    : 1 h 59 min
    Bit rate mode               : Variable
    Bit rate                    : 30.9 Mb/s
    Maximum bit rate            : 35.0 Mb/s
    Width                       : 1 920 pixels
    Height                      : 1 080 pixels
    Display aspect ratio        : 16:9
    Frame rate mode             : Constant
    Frame rate                  : 23.976 (24000/1001) FPS
    Color space                 : YUV
    Chroma subsampling          : 4:2:0
    Bit depth                   : 8 bits
    Scan type                   : Progressive
    Bits/(Pixel*Frame)          : 0.622
    Stream size                 : 25.7 GiB (87%)
    Title                       : REMUX HD1080p [CinemaniaHDD]
    Default                     : Yes
    Forced                      : Yes

    Audio #1
    ID                          : 2
    Format                      : E-AC-3
    Format/Info                 : Enhanced AC-3
    Commercial name             : Dolby Digital Plus
    Codec ID                    : A_EAC3
    Duration                    : 1 h 58 min
    Bit rate mode               : Constant
    Bit rate                    : 640 kb/s
    Channel(s)                  : 6 channels
    Channel layout              : L R C LFE Ls Rs
    Sampling rate               : 48.0 kHz
    Frame rate                  : 31.250 FPS (1536 SPF)
    Compression mode            : Lossy
    Delay relative to video     : 25 s 37 ms
    Stream size                 : 543 MiB (2%)
    Title                       : Español Latino [CinemaniaHDD]
    Language                    : Spanish
    Service kind                : Complete Main
    Default                     : Yes
    Forced                      : Yes

    Audio #2
    ID                          : 3
    Format                      : DTS XLL
    Format/Info                 : Digital Theater Systems
    Commercial name             : DTS-HD Master Audio
    Codec ID                    : A_DTS
    Duration                    : 1 h 59 min
    Bit rate mode               : Variable
    Bit rate                    : 3 267 kb/s
    Channel(s)                  : 6 channels
    Channel layout              : C L R Ls Rs LFE
    Sampling rate               : 48.0 kHz
    Frame rate                  : 93.750 FPS (512 SPF)
    Bit depth                   : 24 bits
    Compression mode            : Lossless
    Stream size                 : 2.72 GiB (9%)
    Title                       : Ingles [CinemaniaHDD]
    Language                    : English
    Default                     : No
    Forced                      : No

    Audio #3
    ID                          : 4
    Format                      : AC-3
    Format/Info                 : Audio Coding 3
    Commercial name             : Dolby Digital
    Codec ID                    : A_AC3
    Duration                    : 1 h 59 min
    Bit rate mode               : Constant
    Bit rate                    : 640 kb/s
    Channel(s)                  : 6 channels
    Channel layout              : L R C LFE Ls Rs
    Sampling rate               : 48.0 kHz
    Frame rate                  : 31.250 FPS (1536 SPF)
    Compression mode            : Lossy
    Stream size                 : 545 MiB (2%)
    Title                       : Español Latino AC3 [CinemaniaHDD]
    Language                    : Spanish
    Service kind                : Complete Main
    Default                     : No
    Forced                      : No

    Text #1
    ID                          : 5
    Format                      : PGS
    Muxing mode                 : zlib
    Codec ID                    : S_HDMV/PGS
    Codec ID/Info               : Picture based subtitle format used on BDs/HD-DVDs
    Duration                    : 1 h 58 min
    Bit rate                    : 36.0 kb/s
    Count of elements           : 2676
    Stream size                 : 30.4 MiB (0%)
    Title                       : Español-PGS [CinemaniaHDD]
    Language                    : Spanish
    Default                     : No
    Forced                      : No

    Text #2
    ID                          : 6
    Format                      : PGS
    Muxing mode                 : zlib
    Codec ID                    : S_HDMV/PGS
    Codec ID/Info               : Picture based subtitle format used on BDs/HD-DVDs
    Duration                    : 1 h 57 min
    Bit rate                    : 46.6 kb/s
    Count of elements           : 3499
    Stream size                 : 39.3 MiB (0%)
    Title                       : Ingles-PGS [CinemaniaHDD]
    Language                    : English
    Default                     : No
    Forced                      : No

    Text #3
    ID                          : 7
    Format                      : UTF-8
    Codec ID                    : S_TEXT/UTF8
    Codec ID/Info               : UTF-8 Plain Text
    Duration                    : 1 h 54 min
    Bit rate                    : 1 b/s
    Count of elements           : 37
    Stream size                 : 1.12 KiB (0%)
    Title                       : Forzados-SRT [CinemaniaHDD]
    Language                    : Spanish
    Default                     : Yes
    Forced                      : Yes

    Text #4
    ID                          : 8
    Format                      : UTF-8
    Codec ID                    : S_TEXT/UTF8
    Codec ID/Info               : UTF-8 Plain Text
    Duration                    : 1 h 55 min
    Bit rate                    : 61 b/s
    Count of elements           : 1401
    Stream size                 : 51.7 KiB (0%)
    Title                       : Español-SRT [CinemaniaHDD]
    Language                    : Spanish
    Default                     : No
    Forced                      : No

    Menu
    00:00:00.000                : en:Chapter 1
    00:05:41.800                : en:Chapter 2
    00:07:33.203                : en:Chapter 3
    00:10:40.932                : en:Chapter 4
    00:16:24.025                : en:Chapter 5
    00:21:23.282                : en:Chapter 6
    00:29:08.747                : en:Chapter 7
    00:36:03.703                : en:Chapter 8
    00:41:49.424                : en:Chapter 9
    00:47:11.078                : en:Chapter 10
    00:50:08.881                : en:Chapter 11
    00:54:40.527                : en:Chapter 12
    00:57:27.152                : en:Chapter 13
    00:59:16.470                : en:Chapter 14
    01:04:37.290                : en:Chapter 15
    01:07:27.877                : en:Chapter 16
    01:12:12.995                : en:Chapter 17
    01:17:50.249                : en:Chapter 18
    01:19:20.422                : en:Chapter 19
    01:24:02.913                : en:Chapter 20
    01:28:33.099                : en:Chapter 21
    01:32:41.514                : en:Chapter 22
    01:42:27.433                : en:Chapter 23
    01:46:07.653                : en:Chapter 24
    01:50:50.936                : en:Chapter 25
    01:54:55.263                : en:Chapter 26

  • Peso: 29.5 GiB

Sinopsis

Descargar La estafa de los Logan (2017) REMUX 1080p Latino. Jimmy está desempleado, divorciado y no tiene un duro, Clyde perdió un brazo en la guerra de Irak y ahora trabaja de camarero en un antro, y Mellie es una peluquera obsesionada con los coches, los tres son hermanos y están empeñados en burlar una supuesta maldición familiar. Para ello van a robar la cámara acorazada del circuito de carreras Charlotte Motor Speedway, durante la celebración de la carrera Coca-Cola 600 en Carolina del Norte. Para poder llevar a cabo el plan necesitarán a un experto en demoliciones, Joe Bang. El único pequeño inconveniente es que está en la cárcel.

Audio Español Latino EAC3 + AC3 5.1  – Ingles DTS-HD 5.1 Bluray

Ficha técnica

Video trailer de la película

Enlaces de descarga

Rip de Bluray

Descargar La estafa de los Logan (2017) REMUX 1080p Latino




Aportes de DPeliculasHDmega la pass es:dpeliculashdmega.org Aportes de CinemaniaHD la pass es:cinemaniahdd.com
Guardado en : Acción , Comedia , Crimen , Drama , Remux

Películas relacionadas

  • Horizon Line (2020) REMUX 1080p Latino

    Horizon Line (2020) REMUX 1080p Latino

    2020
    Horizon Line (2020) REMUX 1080p Latino

    5.0 1h 31m 2020

    Descargar Horizon Line (2020) REMUX 1080p Latino. Una pareja que viaja en un avión pequeño para asistir...

    Director: Mikael Marcimain

    Género: Remux

    Actores: Pearl Mackie

  • Sola (2020) HD 1080p Latino

    Sola (2020) HD 1080p Latino

    2020
    Sola (2020) HD 1080p Latino

    0.0 1h 40m 2020

    Descargar Sola (2020) HD 1080p Latino. Una mujer viuda que viaja sola es secuestrada por un asesino a...

    Director: John Hyams

    Género: Drama

    Actores: Shelly Lipkin

  • Sola (2020) REMUX 1080p Latino

    Sola (2020) REMUX 1080p Latino

    2020
    Sola (2020) REMUX 1080p Latino

    5.0 1h 40m 2020

    Descargar Sola (2020) REMUX 1080p Latino. Una mujer viuda que viaja sola es secuestrada por un asesino...

    Director: John Hyams

    Género: Drama

    Actores: Shelly Lipkin

  • La Red De Corrupcion (2019) HD 1080p Latino

    La Red De Corrupcion (2019) HD 1080p Latino

    2019
    La Red De Corrupcion (2019) HD 1080p Latino

    5.0 1h 45m 2019

    Descargar La Red De Corrupcion (2019) HD 1080p Latino. Con los Juegos Olímpicos de 2012 de Londres...

    Director: Ron Scalpello

    Género: Crimen

    Actores: Timothy Spall

  • La Red De Corrupcion (2019) REMUX 1080p Latino

    La Red De Corrupcion (2019) REMUX 1080p Latino

    2019
    La Red De Corrupcion (2019) REMUX 1080p Latino

    5.0 1h 45m 2019

    Descargar La Red De Corrupcion (2019) REMUX 1080p Latino. Con los Juegos Olímpicos de 2012 de Londres...

    Director: Ron Scalpello

    Género: Crimen

    Actores: Timothy Spall

La estafa de los Logan (2017) REMUX 1080p Latino pelicula full hd, La estafa de los Logan (2017) REMUX 1080p Latino mega latino, La estafa de los Logan (2017) REMUX 1080p Latino 4k latino, La estafa de los Logan (2017) REMUX 1080p Latino pelicula completa, La estafa de los Logan (2017) REMUX 1080p Latino descargar gratis, descargar La estafa de los Logan (2017) REMUX 1080p Latino pelicula latino, La estafa de los Logan (2017) REMUX 1080p Latino 1 link mega, La estafa de los Logan (2017) REMUX 1080p Latino 1 link google drive, La estafa de los Logan (2017) REMUX 1080p Latino hd 1080p latino.
Comentarios 0