×

¿Problemas para descargar con Mozilla, EDGE? Deshabilita la opción "Abrir vinculos en una pestaña nueva" tal como lo muestra ésta imagen.

LOGAN (2017) REMUX 4K HDR Latino – CMHDD

318 vistas

Información de LOGAN (2017) REMUX 4K HDR Latino – CMHDD

Datos de la película

  • Calidad: 4K HDR
  • Audio: Español Latino AC3 5.1 BLURAY - Ingles DTS-HD Master 7.1 BLURAY
  • Subtitulos: Español Latino PGS
  • Resolución: 3840x2160p
  • Formato: MKV
  • Codec: H.264
  • Encoder: Dracarys
  • Mediainfo: Clic para Mostrar Datos Ver
  • Format                      : Matroska
    Format version              : Version 4
    File size                   : 38.2 GiB
    Duration                    : 2 h 17 min
    Overall bit rate mode       : Variable
    Overall bit rate            : 39.8 Mb/s
    Movie name                  : Logan (2017) REMUX 4K HDR Latino - CMHDD
    Encoded date                : UTC 2023-11-21 21:40:22
    Writing application         : mkvmerge v47.0.0 ('Black Flag') 64-bit
    Writing library             : libebml v1.3.10 + libmatroska v1.5.2

    Video
    ID                          : 1
    ID in the original source m : 4113 (0x1011)
    Format                      : HEVC
    Format/Info                 : High Efficiency Video Coding
    Format profile              : Main 10@L5.1@High
    HDR format                  : SMPTE ST 2086, HDR10 compatible
    Codec ID                    : V_MPEGH/ISO/HEVC
    Duration                    : 2 h 17 min
    Bit rate                    : 35.0 Mb/s
    Width                       : 3 840 pixels
    Height                      : 2 160 pixels
    Display aspect ratio        : 16:9
    Frame rate mode             : Constant
    Frame rate                  : 23.976 (24000/1001) FPS
    Color space                 : YUV
    Chroma subsampling          : 4:2:0 (Type 2)
    Bit depth                   : 10 bits
    Bits/(Pixel*Frame)          : 0.176
    Stream size                 : 33.6 GiB (88%)
    Writing library             : ATEME Titan File 3.7.8 (4.7.8.0)
    Language                    : English
    Default                     : No
    Forced                      : No
    Color range                 : Limited
    Color primaries             : BT.2020
    Transfer characteristics    : PQ
    Matrix coefficients         : BT.2020 non-constant
    Mastering display color pri : Display P3
    Mastering display luminance : min: 0.0050 cd/m2, max: 1000 cd/m2
    Original source medium      : Blu-ray

    Audio #1
    ID                          : 2
    Format                      : DTS XLL
    Format/Info                 : Digital Theater Systems
    Commercial name             : DTS-HD Master Audio
    Codec ID                    : A_DTS
    Duration                    : 2 h 17 min
    Bit rate mode               : Variable
    Bit rate                    : 3 699 kb/s
    Channel(s)                  : 8 channels
    Channel layout              : C L R LFE Lb Rb Lss Rss
    Sampling rate               : 48.0 kHz
    Frame rate                  : 93.750 FPS (512 SPF)
    Bit depth                   : 24 bits
    Compression mode            : Lossless
    Stream size                 : 3.55 GiB (9%)
    Language                    : English
    Default                     : No
    Forced                      : No

    Audio #2
    ID                          : 3
    ID in the original source m : 4352 (0x1100)
    Format                      : AC-3
    Format/Info                 : Audio Coding 3
    Commercial name             : Dolby Digital
    Codec ID                    : A_AC3
    Duration                    : 2 h 17 min
    Bit rate mode               : Constant
    Bit rate                    : 640 kb/s
    Channel(s)                  : 6 channels
    Channel layout              : L R C LFE Ls Rs
    Sampling rate               : 48.0 kHz
    Frame rate                  : 31.250 FPS (1536 SPF)
    Compression mode            : Lossy
    Stream size                 : 629 MiB (2%)
    Language                    : English
    Service kind                : Complete Main
    Default                     : No
    Forced                      : No
    Original source medium      : Blu-ray

    Audio #3
    ID                          : 4
    ID in the original source m : 4355 (0x1103)
    Format                      : AC-3
    Format/Info                 : Audio Coding 3
    Commercial name             : Dolby Digital
    Codec ID                    : A_AC3
    Duration                    : 2 h 17 min
    Bit rate mode               : Constant
    Bit rate                    : 448 kb/s
    Channel(s)                  : 6 channels
    Channel layout              : L R C LFE Ls Rs
    Sampling rate               : 48.0 kHz
    Frame rate                  : 31.250 FPS (1536 SPF)
    Compression mode            : Lossy
    Stream size                 : 440 MiB (1%)
    Language                    : Spanish
    Service kind                : Complete Main
    Default                     : Yes
    Forced                      : No
    Original source medium      : Blu-ray

    Text
    ID                          : 5
    ID in the original source m : 4769 (0x12A1)
    Format                      : PGS
    Muxing mode                 : zlib
    Codec ID                    : S_HDMV/PGS
    Codec ID/Info               : Picture based subtitle format used on BDs/HD-DVDs
    Duration                    : 2 h 16 min
    Bit rate                    : 23.2 kb/s
    Frame rate                  : 0.337 FPS
    Count of elements           : 2752
    Stream size                 : 22.6 MiB (0%)
    Language                    : Spanish
    Default                     : No
    Forced                      : No
    Original source medium      : Blu-ray

    Menu
    00:00:00.000                : en:Chapter 01
    00:05:34.751                : en:Chapter 02
    00:09:18.558                : en:Chapter 03
    00:11:41.158                : en:Chapter 04
    00:16:23.232                : en:Chapter 05
    00:20:11.668                : en:Chapter 06
    00:24:26.339                : en:Chapter 07
    00:26:11.903                : en:Chapter 08
    00:30:13.311                : en:Chapter 09
    00:31:59.125                : en:Chapter 10
    00:34:56.886                : en:Chapter 11
    00:39:53.432                : en:Chapter 12
    00:42:55.531                : en:Chapter 13
    00:45:03.826                : en:Chapter 14
    00:47:53.328                : en:Chapter 15
    00:49:39.476                : en:Chapter 16
    00:52:14.422                : en:Chapter 17
    00:54:30.183                : en:Chapter 18
    00:57:44.210                : en:Chapter 19
    01:00:10.023                : en:Chapter 20
    01:03:53.746                : en:Chapter 21
    01:06:55.261                : en:Chapter 22
    01:09:54.773                : en:Chapter 23
    01:13:15.849                : en:Chapter 24
    01:18:43.510                : en:Chapter 25
    01:21:50.906                : en:Chapter 26
    01:25:52.188                : en:Chapter 27
    01:28:38.479                : en:Chapter 28
    01:32:41.430                : en:Chapter 29
    01:35:29.515                : en:Chapter 30
    01:41:03.432                : en:Chapter 31
    01:43:39.796                : en:Chapter 32
    01:49:38.822                : en:Chapter 33
    01:54:20.562                : en:Chapter 34
    01:57:00.346                : en:Chapter 35
    01:59:20.403                : en:Chapter 36
    02:01:14.433                : en:Chapter 37
    02:05:09.627                : en:Chapter 38
    02:06:40.551                : en:Chapter 39
    02:11:07.609                : en:Chapter 40

     

  • Peso: 38.2 GiB

Sinopsis

Sin sus poderes, por primera vez, Lobezno es verdaderamente vulnerable. Después de una vida de dolor y angustia, sin rumbo y perdido en el mundo donde los X-Men son leyenda, su mentor Charles Xavier lo convence de asumir una última misión: proteger a una joven que será la única esperanza para la raza mutante.

Ficha técnica

Video trailer de la película

Enlaces de descarga

Rip de Bluray

Descargar LOGAN (2017) REMUX 4K HDR Latino – CMHDD




Aportes de DPeliculasHDmega la pass es:dpeliculashdmega.org Aportes de CinemaniaHD la pass es:cinemaniahdd.com Aportes recientes:cinemaniahdd.net
Guardado en : Acción , Ciencia ficción , Drama

Películas relacionadas

  • Naturaleza Humana (2022) REMUX 1080p Latino

    Naturaleza Humana (2022) REMUX 1080p Latino

    2022
    Naturaleza Humana (2022) REMUX 1080p Latino

    1h 31m 2022

    Descargar Naturaleza Humana (2022) REMUX 1080p Latino. Una historia sobre la mayoría de edad contada...

    Director: Louie Gibson

    Género: Drama

    Actores: Tim Heidecker

  • Pobres criaturas (2023) WEB-DL 4K UHD HDR Latino

    Pobres criaturas (2023) WEB-DL 4K UHD HDR Latino

    2023
    Pobres criaturas (2023) WEB-DL 4K UHD HDR Latino

    2h 21m 2023

    Descargar Pobres criaturas (2023) WEB-DL 4K UHD HDR Latino. Bella Baxter es una joven revivida por el...

    Director: Yorgos Lanthimos

    Género: 4K HDR

    Actores: Zen Joshua Poisson

  • Pobres criaturas (2023) WEB-DL 1080p Latino

    Pobres criaturas (2023) WEB-DL 1080p Latino

    2023
    Pobres criaturas (2023) WEB-DL 1080p Latino

    2h 21m 2023

    Descargar Pobres criaturas (2023) WEB-DL 1080p Latino. Bella Baxter es una joven revivida por el brillante...

    Director: Yorgos Lanthimos

    Género: Ciencia ficción

    Actores: Zen Joshua Poisson

descargar LOGAN (2017) REMUX 4K HDR Latino – CMHDD 4K HDR 1080p gratis, LOGAN (2017) REMUX 4K HDR Latino – CMHDD 4K HDR mega 1 link, LOGAN (2017) REMUX 4K HDR Latino – CMHDD 4K HDR pelicula completa, descargar LOGAN (2017) REMUX 4K HDR Latino – CMHDD 4K HDR gratis en mega.

LOGAN (2017) REMUX 4K HDR Latino – CMHDD pelicula full hd, LOGAN (2017) REMUX 4K HDR Latino – CMHDD mega latino, LOGAN (2017) REMUX 4K HDR Latino – CMHDD 4k latino, LOGAN (2017) REMUX 4K HDR Latino – CMHDD pelicula completa, LOGAN (2017) REMUX 4K HDR Latino – CMHDD descargar gratis, descargar LOGAN (2017) REMUX 4K HDR Latino – CMHDD pelicula latino, LOGAN (2017) REMUX 4K HDR Latino – CMHDD 1 link mega, LOGAN (2017) REMUX 4K HDR Latino – CMHDD 1 link google drive, LOGAN (2017) REMUX 4K HDR Latino – CMHDD hd 1080p latino.
Comentarios 0