×

¿Problemas para descargar con Mozilla, EDGE? Deshabilita la opción "Abrir vinculos en una pestaña nueva" tal como lo muestra ésta imagen.

Logan (2017) Full HD 1080p Latino

21.700 vistas

Información de Logan (2017) Full HD 1080p Latino

Datos de la película

  • Calidad: Full 1080p
  • Audio: Español Latino AC3 5.1 BLURAY - Ingles DTS 5.1 BLURAY
  • Subtitulos: Español Latino PGS - Ingles PGS
  • Resolución: 1920x1080p
  • Formato: MKV
  • Codec: H.264
  • Encoder: Dracrays
  • Mediainfo: Clic para Mostrar Datos Ver
  • Logan (ß2017) Full HD 1080p Latino-CMHDD.mkv
    Format                      : Matroska
    Format version              : Version 4
    File size                   : 5.75 GiB
    Duration                    : 2 h 17 min
    Overall bit rate            : 5 994 kb/s
    Movie name                  : Logan (2017) CinemaniaHDD.Net
    Encoded date                : UTC 2023-03-06 04:22:24
    Writing application         : mkvmerge v56.1.0 ('My Friend') 64-bit
    Writing library             : libebml v1.4.2 + libmatroska v1.6.4
    Attachments                 : CINEMANIAHD.png

    Video
    ID                          : 1
    Format                      : AVC
    Format/Info                 : Advanced Video Codec
    Format profile              : High@L4.1
    Format settings             : CABAC / 4 Ref Frames
    Format settings, CABAC      : Yes
    Format settings, Reference  : 4 frames
    Codec ID                    : V_MPEG4/ISO/AVC
    Duration                    : 2 h 17 min
    Bit rate                    : 4 016 kb/s
    Width                       : 1 920 pixels
    Height                      : 1 080 pixels
    Display aspect ratio        : 16:9
    Frame rate mode             : Constant
    Frame rate                  : 23.976 (24000/1001) FPS
    Color space                 : YUV
    Chroma subsampling          : 4:2:0
    Bit depth                   : 8 bits
    Scan type                   : Progressive
    Bits/(Pixel*Frame)          : 0.081
    Stream size                 : 3.85 GiB (67%)
    Title                       : Full HD1080p [CinemaniaHDD]
    Writing library             : x264 core 148 r2708 86b7198
    Encoding settings           : cabac=1 / ref=4 / deblock=1:0:0 / analyse=0x3:0x133 / me=esa / subme=10 / psy=1 / psy_rd=1.00:0.00 / mixed_ref=1 / me_range=24 / chroma_me=1 / trellis=2 / 8x8dct=1 / cqm=0 / deadzone=21,11 / fast_pskip=1 / chroma_qp_offset=-2 / threads=34 / lookahead_threads=5 / sliced_threads=0 / nr=0 / decimate=1 / interlaced=0 / bluray_compat=0 / constrained_intra=0 / bframes=8 / b_pyramid=2 / b_adapt=2 / b_bias=0 / direct=3 / weightb=1 / open_gop=0 / weightp=2 / keyint=240 / keyint_min=24 / scenecut=40 / intra_refresh=0 / rc_lookahead=60 / rc=crf / mbtree=1 / crf=20.0 / qcomp=0.60 / qpmin=0 / qpmax=69 / qpstep=4 / vbv_maxrate=62500 / vbv_bufsize=78125 / crf_max=0.0 / nal_hrd=none / filler=0 / ip_ratio=1.40 / aq=1:1.00
    Default                     : Yes
    Forced                      : Yes
    Color range                 : Limited
    Color primaries             : BT.709
    Transfer characteristics    : BT.709
    Matrix coefficients         : BT.709

    Audio #1
    ID                          : 2
    Format                      : AC-3
    Format/Info                 : Audio Coding 3
    Commercial name             : Dolby Digital
    Codec ID                    : A_AC3
    Duration                    : 2 h 17 min
    Bit rate mode               : Constant
    Bit rate                    : 448 kb/s
    Channel(s)                  : 6 channels
    Channel layout              : L R C LFE Ls Rs
    Sampling rate               : 48.0 kHz
    Frame rate                  : 31.250 FPS (1536 SPF)
    Compression mode            : Lossy
    Stream size                 : 440 MiB (7%)
    Title                       : Español Latino [CinemaniaHDD]
    Language                    : Spanish
    Service kind                : Complete Main
    Default                     : Yes
    Forced                      : Yes

    Audio #2
    ID                          : 3
    Format                      : DTS
    Format/Info                 : Digital Theater Systems
    Codec ID                    : A_DTS
    Duration                    : 2 h 17 min
    Bit rate mode               : Constant
    Bit rate                    : 1 509 kb/s
    Channel(s)                  : 6 channels
    Channel layout              : C L R Ls Rs LFE
    Sampling rate               : 48.0 kHz
    Frame rate                  : 93.750 FPS (512 SPF)
    Bit depth                   : 24 bits
    Compression mode            : Lossy
    Stream size                 : 1.45 GiB (25%)
    Title                       : Ingles [CinemaniaHDD]
    Language                    : English
    Default                     : No
    Forced                      : No

    Text #1
    ID                          : 4
    Format                      : PGS
    Muxing mode                 : zlib
    Codec ID                    : S_HDMV/PGS
    Codec ID/Info               : Picture based subtitle format used on BDs/HD-DVDs
    Duration                    : 2 h 16 min
    Bit rate                    : 23.2 kb/s
    Count of elements           : 2752
    Stream size                 : 22.6 MiB (0%)
    Title                       : Español-PGS [CinemaniaHDD]
    Language                    : Spanish
    Default                     : No
    Forced                      : No

    Text #2
    ID                          : 5
    Format                      : PGS
    Muxing mode                 : zlib
    Codec ID                    : S_HDMV/PGS
    Codec ID/Info               : Picture based subtitle format used on BDs/HD-DVDs
    Duration                    : 2 h 13 min
    Bit rate                    : 34.5 kb/s
    Count of elements           : 3902
    Stream size                 : 33.0 MiB (1%)
    Title                       : Ingles [CinemaniaHDD]
    Language                    : English
    Default                     : No
    Forced                      : No

    Text #3
    ID                          : 6
    Format                      : UTF-8
    Codec ID                    : S_TEXT/UTF8
    Codec ID/Info               : UTF-8 Plain Text
    Duration                    : 1 h 34 min
    Bit rate                    : 0 b/s
    Count of elements           : 11
    Stream size                 : 290 Bytes (0%)
    Title                       : Forzados-SRT [CinemaniaHDD]
    Language                    : Spanish
    Default                     : Yes
    Forced                      : Yes

    Text #4
    ID                          : 7
    Format                      : UTF-8
    Codec ID                    : S_TEXT/UTF8
    Codec ID/Info               : UTF-8 Plain Text
    Duration                    : 2 h 9 min
    Bit rate                    : 39 b/s
    Count of elements           : 1372
    Stream size                 : 36.9 KiB (0%)
    Title                       : Español-SRT [CinemaniaHDD]
    Language                    : Spanish
    Default                     : No
    Forced                      : No

    Menu
    00:00:00.000                : :Chapter 1
    00:05:35.126                : :Chapter 2
    00:09:18.558                : :Chapter 3
    00:11:41.159                : :Chapter 4
    00:16:23.232                : :Chapter 5
    00:20:11.669                : :Chapter 6
    00:24:26.715                : :Chapter 7
    00:26:11.904                : :Chapter 8
    00:30:13.312                : :Chapter 9
    00:31:59.126                : :Chapter 10
    00:34:56.886                : :Chapter 11
    00:39:53.433                : :Chapter 12
    00:42:55.573                : :Chapter 13
    00:45:03.826                : :Chapter 14
    00:47:53.412                : :Chapter 15
    00:49:39.560                : :Chapter 16
    00:52:14.423                : :Chapter 17
    00:54:30.517                : :Chapter 18
    00:57:44.211                : :Chapter 19
    01:00:10.398                : :Chapter 20
    01:03:53.830                : :Chapter 21
    01:06:55.512                : :Chapter 22
    01:09:54.774                : :Chapter 23
    01:13:15.892                : :Chapter 24
    01:18:43.594                : :Chapter 25
    01:21:50.906                : :Chapter 26
    01:25:52.189                : :Chapter 27
    01:28:38.814                : :Chapter 28
    01:32:41.431                : :Chapter 29
    01:35:29.724                : :Chapter 30
    01:41:03.432                : :Chapter 31
    01:43:39.880                : :Chapter 32
    01:49:38.989                : :Chapter 33
    01:54:20.562                : :Chapter 34
    01:57:00.430                : :Chapter 35
    01:59:20.403                : :Chapter 36
    02:01:14.434                : :Chapter 37
    02:05:09.627                : :Chapter 38
    02:06:40.551                : :Chapter 39
    02:11:07.860                : :Chapter 40

  • Peso: 5.75 GB

Sinopsis

Descargar Logan (2017) Full HD 1080p Latino. El año 2029. Los mutantes han desaparecido prácticamente. Un Logan cansado y abatido (Hugh Jackman) vive retirado en la ciudad mexicana de El Paso. Es una sombra de lo que era. limusina de la vida conduciendo victorias y más borracho de lo necesario. Su compañero en el exilio es el profesor Charles Xavier (Patrick Stewart), en el pasado, porque está enfermo, discapacitado y deteriorados facultades mentales. Logan se ocupa de él. Pero Logan intenta ocultar al mundo y olvidar su legado va a terminar con la aparición de la joven Laura Kinney (Dafne Keen), también conocido como X-23, una chica que parece tener sus propios poderes, y es perseguido por las fuerzas oscuras . Esto obligará a Logan para hacer frente a un villano en su antiguo pasado en una misión de vida o muerte.

RESUBIDO!!!

Ficha técnica

Video trailer de la película

Enlaces de descarga

Rip de Bluray

Descargar Logan (2017) Full HD 1080p Latino




Aportes de DPeliculasHDmega la pass es:dpeliculashdmega.org Aportes de CinemaniaHD la pass es:cinemaniahdd.com Aportes recientes:cinemaniahdd.net
Etiquetado en :

Películas relacionadas

descargar Logan (2017) Full HD 1080p Latino Full 1080p 1080p gratis, Logan (2017) Full HD 1080p Latino Full 1080p mega 1 link, Logan (2017) Full HD 1080p Latino Full 1080p pelicula completa, descargar Logan (2017) Full HD 1080p Latino Full 1080p gratis en mega.

Logan (2017) Full HD 1080p Latino pelicula full hd, Logan (2017) Full HD 1080p Latino mega latino, Logan (2017) Full HD 1080p Latino 4k latino, Logan (2017) Full HD 1080p Latino pelicula completa, Logan (2017) Full HD 1080p Latino descargar gratis, descargar Logan (2017) Full HD 1080p Latino pelicula latino, Logan (2017) Full HD 1080p Latino 1 link mega, Logan (2017) Full HD 1080p Latino 1 link google drive, Logan (2017) Full HD 1080p Latino hd 1080p latino.
Comentarios 37