×

¿Problemas para descargar con Mozilla, EDGE? Deshabilita la opción "Abrir vinculos en una pestaña nueva" tal como lo muestra ésta imagen.

Lock Up (1989) REMUX 4K HDR Latino – CMHDD

347 vistas

Información de Lock Up (1989) REMUX 4K HDR Latino – CMHDD

Datos de la película

  • Calidad: 4K HDR
  • Audio: Español Latino DTS 2.0 BLURAY - Ingles DTS 5.1 BLURAY
  • Subtitulos: Español Latino PGS
  • Resolución: 3840x2160p
  • Formato: MKV
  • Codec: H.264
  • Encoder: Dracarys
  • Mediainfo: Clic para Mostrar Datos Ver
  • Format                      : Matroska
    Format version              : Version 4
    File size                   : 55.4 GiB
    Duration                    : 1 h 48 min
    Overall bit rate mode       : Variable
    Overall bit rate            : 72.9 Mb/s
    Movie name                  : Lock Up (1989) REMUX 4K HDR Latino - CMHDD
    Encoded date                : UTC 2023-03-05 00:00:34
    Writing application         : mkvmerge v47.0.0 ('Black Flag') 64-bit
    Writing library             : libebml v1.3.10 + libmatroska v1.5.2

    Video
    ID                          : 1
    ID in the original source m : 4113 (0x1011)
    Format                      : HEVC
    Format/Info                 : High Efficiency Video Coding
    Format profile              : Main 10@L5.1@High
    HDR format                  : SMPTE ST 2086, HDR10 compatible
    Codec ID                    : V_MPEGH/ISO/HEVC
    Duration                    : 1 h 48 min
    Bit rate                    : 67.5 Mb/s
    Width                       : 3 840 pixels
    Height                      : 2 160 pixels
    Display aspect ratio        : 16:9
    Frame rate mode             : Constant
    Frame rate                  : 24.000 FPS
    Color space                 : YUV
    Chroma subsampling          : 4:2:0 (Type 2)
    Bit depth                   : 10 bits
    Bits/(Pixel*Frame)          : 0.339
    Stream size                 : 51.2 GiB (93%)
    Default                     : Yes
    Forced                      : No
    Color range                 : Limited
    Color primaries             : BT.2020
    Transfer characteristics    : PQ
    Matrix coefficients         : BT.2020 non-constant
    Mastering display color pri : Display P3
    Mastering display luminance : min: 0.0001 cd/m2, max: 1000 cd/m2
    Maximum Content Light Level : 987 cd/m2
    Maximum Frame-Average Light : 407 cd/m2
    Original source medium      : Blu-ray

    Audio #1
    ID                          : 2
    ID in the original source m : 4352 (0x1100)
    Format                      : DTS XLL
    Format/Info                 : Digital Theater Systems
    Commercial name             : DTS-HD Master Audio
    Codec ID                    : A_DTS
    Duration                    : 1 h 48 min
    Bit rate mode               : Variable
    Bit rate                    : 3 982 kb/s
    Channel(s)                  : 6 channels
    Channel layout              : C L R Ls Rs LFE
    Sampling rate               : 48.0 kHz
    Frame rate                  : 93.750 FPS (512 SPF)
    Bit depth                   : 24 bits
    Compression mode            : Lossless
    Stream size                 : 3.02 GiB (5%)
    Language                    : English
    Default                     : No
    Forced                      : No
    Original source medium      : Blu-ray

    Audio #2
    ID                          : 3
    ID in the original source m : 4353 (0x1101)
    Format                      : DTS XLL
    Format/Info                 : Digital Theater Systems
    Commercial name             : DTS-HD Master Audio
    Codec ID                    : A_DTS
    Duration                    : 1 h 48 min
    Bit rate mode               : Variable
    Bit rate                    : 1 443 kb/s
    Channel(s)                  : 2 channels
    Channel layout              : L R
    Sampling rate               : 48.0 kHz
    Frame rate                  : 93.750 FPS (512 SPF)
    Bit depth                   : 24 bits
    Compression mode            : Lossless
    Stream size                 : 1.10 GiB (2%)
    Language                    : Spanish
    Default                     : Yes
    Forced                      : No
    Original source medium      : Blu-ray

    Text
    ID                          : 4
    ID in the original source m : 4769 (0x12A1)
    Format                      : PGS
    Muxing mode                 : zlib
    Codec ID                    : S_HDMV/PGS
    Codec ID/Info               : Picture based subtitle format used on BDs/HD-DVDs
    Duration                    : 1 h 46 min
    Bit rate                    : 24.4 kb/s
    Frame rate                  : 0.339 FPS
    Count of elements           : 2160
    Stream size                 : 18.6 MiB (0%)
    Language                    : Spanish
    Default                     : No
    Forced                      : No
    Original source medium      : Blu-ray

    Menu
    00:00:00.000                : en:Capítulo 01
    00:08:11.750                : en:Capítulo 02
    00:18:44.708                : en:Capítulo 03
    00:26:06.791                : en:Capítulo 04
    00:32:52.791                : en:Capítulo 05
    00:40:58.500                : en:Capítulo 06
    00:54:48.083                : en:Capítulo 07
    01:06:00.791                : en:Capítulo 08
    01:15:18.958                : en:Capítulo 09
    01:23:07.708                : en:Capítulo 10
    01:36:08.000                : en:Capítulo 11
    01:44:57.250                : en:Capítulo 12

  • Peso: 55.4 GiB

Sinopsis

Frank Leone está a punto de cumplir su condena de reclusión por un delito menor. Sin embargo a punto de ser liberado, Warden Drumgoole se hace cargo de la prisión. Drumgoole fue reasignado a tan infernal presidio después de que su administración fuera públicamente puesta en entredicho por Leone, y ahora él se encargará de que nunca vuelva a ver la luz del día.

Ficha técnica

Video trailer de la película

Enlaces de descarga

Rip de Bluray

Descargar Lock Up (1989) REMUX 4K HDR Latino – CMHDD


Aportes de DPeliculasHDmega la pass es:dpeliculashdmega.org Aportes de CinemaniaHD la pass es:cinemaniahdd.com Aportes recientes:cinemaniahdd.net
Guardado en : Acción , Crimen

Películas relacionadas

  • Cómplices del engaño (2024) HD 1080p Latino

    Cómplices del engaño (2024) HD 1080p Latino

    2024
    Cómplices del engaño (2024) HD 1080p Latino

    1h 56m 2024

    Descargar Cómplices del engaño (2024) HD 1080p Latino. Gary Johnson es el asesino profesional más...

    Director: T.J. Larson

    Género: Comedia

    Actores: Tre Styles

  • Cómplices del engaño (2024) REMUX 1080p Latino

    Cómplices del engaño (2024) REMUX 1080p Latino

    2024
    Cómplices del engaño (2024) REMUX 1080p Latino

    1h 56m 2024

    Descargar Cómplices del engaño (2024) REMUX 1080p Latino. Gary Johnson es el asesino profesional más...

    Director: T.J. Larson

    Género: Comedia

    Actores: Tre Styles

  • True Lies (1994) REMUX 1080p Latino – CMHDD

    True Lies (1994) REMUX 1080p Latino – CMHDD

    1994
    True Lies (1994) REMUX 1080p Latino – CMHDD

    2h 21m 1994

    El agente especial Harry Tasker mantiene una doble vida. Harry habla seis idiomas, conoce y domina todas...

    Director: Sharron Reynolds-Enriquez

    Género: Acción

    Actores: William Shipman

  • True Lies (1994) REMUX 4K HDR Latino – CMHDD

    True Lies (1994) REMUX 4K HDR Latino – CMHDD

    1994
    True Lies (1994) REMUX 4K HDR Latino – CMHDD

    2h 21m 1994

    El agente especial Harry Tasker mantiene una doble vida. Harry habla seis idiomas, conoce y domina todas...

    Director: Sharron Reynolds-Enriquez

    Género: Acción

    Actores: William Shipman

descargar Lock Up (1989) REMUX 4K HDR Latino – CMHDD 4K HDR 1080p gratis, Lock Up (1989) REMUX 4K HDR Latino – CMHDD 4K HDR mega 1 link, Lock Up (1989) REMUX 4K HDR Latino – CMHDD 4K HDR pelicula completa, descargar Lock Up (1989) REMUX 4K HDR Latino – CMHDD 4K HDR gratis en mega.

Lock Up (1989) REMUX 4K HDR Latino – CMHDD pelicula full hd, Lock Up (1989) REMUX 4K HDR Latino – CMHDD mega latino, Lock Up (1989) REMUX 4K HDR Latino – CMHDD 4k latino, Lock Up (1989) REMUX 4K HDR Latino – CMHDD pelicula completa, Lock Up (1989) REMUX 4K HDR Latino – CMHDD descargar gratis, descargar Lock Up (1989) REMUX 4K HDR Latino – CMHDD pelicula latino, Lock Up (1989) REMUX 4K HDR Latino – CMHDD 1 link mega, Lock Up (1989) REMUX 4K HDR Latino – CMHDD 1 link google drive, Lock Up (1989) REMUX 4K HDR Latino – CMHDD hd 1080p latino.
Comentarios 0