×

¿Problemas para descargar con Mozilla, EDGE? Deshabilita la opción "Abrir vinculos en una pestaña nueva" tal como lo muestra ésta imagen.

Locas en apuros (2023) PLACEBO Full HD 1080p Latino

177 vistas

Información de Locas en apuros (2023) PLACEBO Full HD 1080p Latino

Datos de la película

  • Calidad: Full 1080p
  • Audio: Español Latino AC3 5.1 BLURAY - Ingles DTS 5.1 BLURAY
  • Subtitulos: Español Latino PGS - Ingles PGS
  • Resolución: 1920x1080p
  • Formato: MKV
  • Codec: H.264
  • Encoder: Melkor
  • Mediainfo: Clic para Mostrar Datos Ver
  • Locas En Apuros (2023) PLACEBO 1080p Latino.mkv
    Format                      : Matroska
    Format version              : Version 4
    File size                   : 4.56 GiB
    Duration                    : 1 h 34 min
    Overall bit rate            : 6 878 kb/s
    Movie name                  : Joy Ride (2023) CinemaniaHDD.Net
    Encoded date                : UTC 2023-09-13 21:02:48
    Writing application         : mkvmerge v56.1.0 ('My Friend') 64-bit
    Writing library             : libebml v1.4.2 + libmatroska v1.6.4
    Cover                       : Yes
    Attachments                 : cover.jpg / CINEMANIAHD.png
    Site                        : CinemaniaHDD.Net
    Uploader                    : Melkor

    Video
    ID                          : 1
    Format                      : AVC
    Format/Info                 : Advanced Video Codec
    Format profile              : High@L4.1
    Format settings             : CABAC / 4 Ref Frames
    Format settings, CABAC      : Yes
    Format settings, Reference  : 4 frames
    Codec ID                    : V_MPEG4/ISO/AVC
    Duration                    : 1 h 34 min
    Bit rate                    : 4 665 kb/s
    Width                       : 1 920 pixels
    Height                      : 1 080 pixels
    Display aspect ratio        : 16:9
    Frame rate mode             : Constant
    Frame rate                  : 23.976 (24000/1001) FPS
    Color space                 : YUV
    Chroma subsampling          : 4:2:0
    Bit depth                   : 8 bits
    Scan type                   : Progressive
    Bits/(Pixel*Frame)          : 0.094
    Stream size                 : 3.09 GiB (68%)
    Title                       : Full HD1080p [CinemaniaHDD]
    Writing library             : x264 core 163 r3059 b684ebe0
    Encoding settings           : cabac=1 / ref=4 / deblock=1:0:0 / analyse=0x3:0x133 / me=tesa / subme=11 / psy=1 / psy_rd=1.00:0.00 / mixed_ref=1 / me_range=24 / chroma_me=1 / trellis=2 / 8x8dct=1 / cqm=0 / deadzone=21,11 / fast_pskip=0 / chroma_qp_offset=-2 / threads=24 / lookahead_threads=6 / sliced_threads=0 / nr=0 / decimate=1 / interlaced=0 / bluray_compat=0 / constrained_intra=0 / bframes=16 / b_pyramid=2 / b_adapt=2 / b_bias=0 / direct=3 / weightb=1 / open_gop=0 / weightp=2 / keyint=240 / keyint_min=24 / scenecut=40 / intra_refresh=0 / rc_lookahead=60 / rc=crf / mbtree=1 / crf=19.0 / qcomp=0.60 / qpmin=0 / qpmax=69 / qpstep=4 / vbv_maxrate=62500 / vbv_bufsize=78125 / crf_max=0.0 / nal_hrd=none / filler=0 / ip_ratio=1.40 / aq=1:1.00
    Default                     : Yes
    Forced                      : Yes
    Color range                 : Limited
    Color primaries             : BT.709
    Transfer characteristics    : BT.709
    Matrix coefficients         : BT.709

    Audio #1
    ID                          : 2
    ID in the original source m : 4354 (0x1102)
    Format                      : AC-3
    Format/Info                 : Audio Coding 3
    Commercial name             : Dolby Digital
    Codec ID                    : A_AC3
    Duration                    : 1 h 34 min
    Bit rate mode               : Constant
    Bit rate                    : 640 kb/s
    Channel(s)                  : 6 channels
    Channel layout              : L R C LFE Ls Rs
    Sampling rate               : 48.0 kHz
    Frame rate                  : 31.250 FPS (1536 SPF)
    Compression mode            : Lossy
    Stream size                 : 434 MiB (9%)
    Title                       : Español Latino [CinemaniaHDD]
    Language                    : Spanish
    Service kind                : Complete Main
    Default                     : Yes
    Forced                      : Yes
    Original source medium      : Blu-ray

    Audio #2
    ID                          : 3
    Format                      : DTS
    Format/Info                 : Digital Theater Systems
    Codec ID                    : A_DTS
    Duration                    : 1 h 34 min
    Bit rate mode               : Constant
    Bit rate                    : 1 509 kb/s
    Channel(s)                  : 6 channels
    Channel layout              : C L R Ls Rs LFE
    Sampling rate               : 48.0 kHz
    Frame rate                  : 93.750 FPS (512 SPF)
    Bit depth                   : 16 bits
    Compression mode            : Lossy
    Stream size                 : 1 023 MiB (22%)
    Default                     : No
    Forced                      : No

    Text #1
    ID                          : 4
    Format                      : PGS
    Muxing mode                 : zlib
    Codec ID                    : S_HDMV/PGS
    Codec ID/Info               : Picture based subtitle format used on BDs/HD-DVDs
    Duration                    : 1 h 33 min
    Bit rate                    : 4 775 b/s
    Count of elements           : 338
    Stream size                 : 3.21 MiB (0%)
    Title                       : Forzados-PGS [CinemaniaHDD]
    Language                    : Spanish
    Default                     : No
    Forced                      : No

    Text #2
    ID                          : 5
    ID in the original source m : 4609 (0x1201)
    Format                      : PGS
    Muxing mode                 : zlib
    Codec ID                    : S_HDMV/PGS
    Codec ID/Info               : Picture based subtitle format used on BDs/HD-DVDs
    Duration                    : 1 h 33 min
    Bit rate                    : 49.5 kb/s
    Count of elements           : 3270
    Stream size                 : 33.2 MiB (1%)
    Title                       : Español-PGS [CinemaniaHDD]
    Language                    : Spanish
    Default                     : No
    Forced                      : No
    Original source medium      : Blu-ray

    Text #3
    ID                          : 6
    ID in the original source m : 4608 (0x1200)
    Format                      : PGS
    Muxing mode                 : zlib
    Codec ID                    : S_HDMV/PGS
    Codec ID/Info               : Picture based subtitle format used on BDs/HD-DVDs
    Duration                    : 1 h 34 min
    Bit rate                    : 63.4 kb/s
    Count of elements           : 4120
    Stream size                 : 43.0 MiB (1%)
    Title                       : Ingles-PGS [CinemaniaHDD]
    Language                    : English
    Default                     : No
    Forced                      : No
    Original source medium      : Blu-ray

    Text #4
    ID                          : 7
    Format                      : UTF-8
    Codec ID                    : S_TEXT/UTF8
    Codec ID/Info               : UTF-8 Plain Text
    Duration                    : 1 h 33 min
    Bit rate                    : 7 b/s
    Count of elements           : 170
    Stream size                 : 5.42 KiB (0%)
    Title                       : Forzados-SRT [CinemaniaHDD]
    Language                    : Spanish
    Default                     : Yes
    Forced                      : Yes

    Text #5
    ID                          : 8
    Format                      : UTF-8
    Codec ID                    : S_TEXT/UTF8
    Codec ID/Info               : UTF-8 Plain Text
    Duration                    : 1 h 27 min
    Bit rate                    : 89 b/s
    Count of elements           : 1633
    Stream size                 : 57.0 KiB (0%)
    Title                       : Español-SRT [CinemaniaHDD]
    Language                    : Spanish
    Default                     : No
    Forced                      : No

    Menu
    00:00:00.000                : Chapter 01
    00:07:03.381                : Chapter 02
    00:12:31.834                : Chapter 03
    00:20:20.302                : Chapter 04
    00:26:30.589                : Chapter 05
    00:34:46.584                : Chapter 06
    00:37:58.276                : Chapter 07
    00:42:47.606                : Chapter 08
    00:48:11.513                : Chapter 09
    00:54:27.722                : Chapter 10
    01:00:30.918                : Chapter 11
    01:05:56.577                : Chapter 12
    01:12:20.461                : Chapter 13
    01:15:30.150                : Chapter 14
    01:20:14.142                : Chapter 15
    01:26:32.020                : Chapter 16

  • Peso: 4.56 GiB

Sinopsis

Descargar Locas en apuros (2023) PLACEBO Full HD 1080p Latino. Cuatro amigos asiático-estadounidenses viajan por Asia en busca de una de sus madres biológicas. En el camino, su experiencia se convierte en una de unión, amistad, pertenencia y libertinaje sin restricciones.

Ficha técnica

Video trailer de la película

Enlaces de descarga

Rip de Bluray

Descargar Locas en apuros (2023) PLACEBO Full HD 1080p Latino




Aportes de DPeliculasHDmega la pass es:dpeliculashdmega.org Aportes de CinemaniaHD la pass es:cinemaniahdd.com Aportes recientes:cinemaniahdd.net

Películas relacionadas

descargar Locas en apuros (2023) PLACEBO Full HD 1080p Latino Full 1080p 1080p gratis, Locas en apuros (2023) PLACEBO Full HD 1080p Latino Full 1080p mega 1 link, Locas en apuros (2023) PLACEBO Full HD 1080p Latino Full 1080p pelicula completa, descargar Locas en apuros (2023) PLACEBO Full HD 1080p Latino Full 1080p gratis en mega.

Locas en apuros (2023) PLACEBO Full HD 1080p Latino pelicula full hd, Locas en apuros (2023) PLACEBO Full HD 1080p Latino mega latino, Locas en apuros (2023) PLACEBO Full HD 1080p Latino 4k latino, Locas en apuros (2023) PLACEBO Full HD 1080p Latino pelicula completa, Locas en apuros (2023) PLACEBO Full HD 1080p Latino descargar gratis, descargar Locas en apuros (2023) PLACEBO Full HD 1080p Latino pelicula latino, Locas en apuros (2023) PLACEBO Full HD 1080p Latino 1 link mega, Locas en apuros (2023) PLACEBO Full HD 1080p Latino 1 link google drive, Locas en apuros (2023) PLACEBO Full HD 1080p Latino hd 1080p latino.
Comentarios 0