Locamente millonarios (2018) Full 1080p Latino

1.206 vistas
1 estrella2 estrellas3 estrellas4 estrellas5 estrellas (1 votos, promedio: 5,00 de 5)
Cargando…

Información de Locamente millonarios (2018) Full 1080p Latino

Datos de la película

  • Calidad: Full 1080p
  • Audio: Español Latino AC3 5.1 BLURAY - Ingles DTS 5.1 BLURAY
  • Subtitulos: Español Latino PGS - Ingles PGS
  • Resolución: 1920x1080p
  • Formato: MKV
  • Codec: H.264
  • Encoder: Dracarys
  • Mediainfo: Clic para Mostrar Datos Ver
  • Format                                   : Matroska
    Format version                           : Version 4 / Version 2
    File size                                : 4.91 GiB
    Duration                                 : 2 h 0 min
    Overall bit rate                         : 5 824 kb/s
    Movie name                               : CinemaniaHDD.net
    Encoded date                             : UTC 2018-11-27 18:08:54 / UTC 2018-11-26T09:47:40Z
    Writing application                      : mkvmerge v15.0.0 ('Duel with the Devil') 64-bit
    Writing library                          : libebml v1.3.5 + libmatroska v1.4.5 / Lavf57.7.2

    Video
    ID                                       : 1
    Format                                   : AVC
    Format/Info                              : Advanced Video Codec
    Format profile                           : [email protected]
    Format settings                          : CABAC / 4 Ref Frames
    Format settings, CABAC                   : Yes
    Format settings, RefFrames               : 4 frames
    Codec ID                                 : V_MPEG4/ISO/AVC
    Duration                                 : 2 h 0 min
    Bit rate                                 : 3 559 kb/s
    Width                                    : 1 920 pixels
    Height                                   : 1 080 pixels
    Display aspect ratio                     : 16:9
    Frame rate mode                          : Constant
    Frame rate                               : 23.976 (24000/1001) FPS
    Color space                              : YUV
    Chroma subsampling                       : 4:2:0
    Bit depth                                : 8 bits
    Scan type                                : Progressive
    Bits/(Pixel*Frame)                       : 0.072
    Stream size                              : 3.00 GiB (61%)
    Writing library                          : x264 core 148 r2708 86b7198
    Encoding settings                        : cabac=1 / ref=4 / deblock=1:0:0 / analyse=0x3:0x133 / me=esa / subme=10 / psy=1 / psy_rd=1.00:0.00 / mixed_ref=1 / me_range=24 / chroma_me=1 / trellis=2 / 8x8dct=1 / cqm=0 / deadzone=21,11 / fast_pskip=1 / chroma_qp_offset=-2 / threads=34 / lookahead_threads=5 / sliced_threads=0 / nr=0 / decimate=1 / interlaced=0 / bluray_compat=0 / constrained_intra=0 / bframes=8 / b_pyramid=2 / b_adapt=2 / b_bias=0 / direct=3 / weightb=1 / open_gop=0 / weightp=2 / keyint=240 / keyint_min=24 / scenecut=40 / intra_refresh=0 / rc_lookahead=60 / rc=crf / mbtree=1 / crf=20.0 / qcomp=0.60 / qpmin=0 / qpmax=69 / qpstep=4 / vbv_maxrate=62500 / vbv_bufsize=78125 / crf_max=0.0 / nal_hrd=none / filler=0 / ip_ratio=1.40 / aq=1:1.00
    Language                                 : English
    Default                                  : Yes
    Forced                                   : No
    Color range                              : Limited
    Color primaries                          : BT.709
    Transfer characteristics                 : BT.709
    Matrix coefficients                      : BT.709
    Statistics Tags Issue                    : mkvmerge v15.0.0 ('Duel with the Devil') 64-bit 2018-11-27 18:08:54 / mkvmerge v15.0.0 ('Duel with the Devil') 64-bit 2018-11-27 18:08:54 / UTC 2018-11-26T09:47:40Z
    FromStats_BitRate                        : 3647408
    FromStats_Duration                       : 02:00:39.232000000
    FromStats_FrameCount                     : 173568
    FromStats_StreamSize                     : 3300554284

    Audio #1
    ID                                       : 2
    Format                                   : AC-3
    Format/Info                              : Audio Coding 3
    Format settings, Endianness              : Big
    Codec ID                                 : A_AC3
    Duration                                 : 2 h 0 min
    Bit rate mode                            : Constant
    Bit rate                                 : 640 kb/s
    Channel(s)                               : 6 channels
    Channel positions                        : Front: L C R, Side: L R, LFE
    Sampling rate                            : 48.0 kHz
    Frame rate                               : 31.250 FPS (1536 SPF)
    Bit depth                                : 16 bits
    Compression mode                         : Lossy
    Stream size                              : 552 MiB (11%)
    Language                                 : Spanish
    Service kind                             : Complete Main
    Default                                  : Yes
    Forced                                   : No
    Statistics Tags Issue                    : mkvmerge v15.0.0 ('Duel with the Devil') 64-bit 2018-11-27 18:08:54 / mkvmerge v15.0.0 ('Duel with the Devil') 64-bit 2018-11-27 18:08:54 / UTC 2018-11-26T09:47:40Z
    FromStats_BitRate                        : 640000
    FromStats_Duration                       : 02:00:39.232000000
    FromStats_FrameCount                     : 226226
    FromStats_StreamSize                     : 579138560

    Audio #2
    ID                                       : 3
    Format                                   : DTS
    Format/Info                              : Digital Theater Systems
    Mode                                     : 16
    Format settings, Endianness              : Big
    Codec ID                                 : A_DTS
    Duration                                 : 2 h 0 min
    Bit rate mode                            : Constant
    Bit rate                                 : 1 509 kb/s
    Channel(s)                               : 6 channels
    Channel positions                        : Front: L C R, Side: L R, LFE
    Sampling rate                            : 48.0 kHz
    Frame rate                               : 93.750 FPS (512 SPF)
    Bit depth                                : 24 bits
    Compression mode                         : Lossy
    Stream size                              : 1.27 GiB (26%)
    Language                                 : English
    Default                                  : No
    Forced                                   : No
    Statistics Tags Issue                    : mkvmerge v15.0.0 ('Duel with the Devil') 64-bit 2018-11-27 18:08:54 / mkvmerge v15.0.0 ('Duel with the Devil') 64-bit 2018-11-27 18:08:54 / UTC 2018-11-26T09:47:40Z
    FromStats_BitRate                        : 1508999
    FromStats_Duration                       : 02:00:39.222000000
    FromStats_FrameCount                     : 678677
    FromStats_StreamSize                     : 1365498124

    Text #1
    ID                                       : 4
    Format                                   : PGS
    Muxing mode                              : zlib
    Codec ID                                 : S_HDMV/PGS
    Codec ID/Info                            : Picture based subtitle format used on BDs/HD-DVDs
    Language                                 : English
    Default                                  : No
    Forced                                   : No
    Statistics Tags Issue                    : mkvmerge v15.0.0 ('Duel with the Devil') 64-bit 2018-11-27 18:08:54 / mkvmerge v15.0.0 ('Duel with the Devil') 64-bit 2018-11-27 18:08:54 / UTC 2018-11-26T09:47:40Z
    FromStats_BitRate                        : 44644
    FromStats_Duration                       : 02:00:24.217000000
    FromStats_FrameCount                     : 3724
    FromStats_StreamSize                     : 40315043

    Text #2
    ID                                       : 5
    Format                                   : PGS
    Muxing mode                              : zlib
    Codec ID                                 : S_HDMV/PGS
    Codec ID/Info                            : Picture based subtitle format used on BDs/HD-DVDs
    Language                                 : Spanish
    Default                                  : No
    Forced                                   : No
    Statistics Tags Issue                    : mkvmerge v15.0.0 ('Duel with the Devil') 64-bit 2018-11-27 18:08:54 / mkvmerge v15.0.0 ('Duel with the Devil') 64-bit 2018-11-27 18:08:54 / UTC 2018-11-26T09:47:40Z
    FromStats_BitRate                        : 35932
    FromStats_Duration                       : 01:59:49.933000000
    FromStats_FrameCount                     : 3143
    FromStats_StreamSize                     : 32294038

    Text #3
    ID                                       : 6
    Format                                   : PGS
    Muxing mode                              : zlib
    Codec ID                                 : S_HDMV/PGS
    Codec ID/Info                            : Picture based subtitle format used on BDs/HD-DVDs
    Title                                    : Forzados
    Language                                 : Spanish
    Default                                  : No
    Forced                                   : No
    Statistics Tags Issue                    : mkvmerge v15.0.0 ('Duel with the Devil') 64-bit 2018-11-27 18:08:54 / mkvmerge v15.0.0 ('Duel with the Devil') 64-bit 2018-11-27 18:08:54 / UTC 2018-11-26T09:47:40Z
    FromStats_BitRate                        : 1596
    FromStats_Duration                       : 01:59:15.398000000
    FromStats_FrameCount                     : 174
    FromStats_StreamSize                     : 1427845

    Menu
    00:00:00.000                             : :Chapter 1
    00:11:28.938                             : :Chapter 2
    00:19:07.396                             : :Chapter 3
    00:28:22.534                             : :Chapter 4
    00:40:52.158                             : :Chapter 5
    00:51:29.253                             : :Chapter 6
    01:02:17.359                             : :Chapter 7
    01:11:31.537                             : :Chapter 8
    01:22:17.891                             : :Chapter 9
    01:32:04.269                             : :Chapter 10
    01:41:37.341                             : :Chapter 11
    01:53:54.036                             : :Chapter 12

     

  • Peso: 4.91 GiB

Sinopsis

Rachel Chu es profesora de economía en la Universidad de Nueva York, allí conoce a Nick Young -profesor de historia- y se enamoran. Ambos tienen que viajar a la ciudad natal de Nick, Singapur, para asistir a la boda de su mejor amigo. Es allí cuando Rachel descubre que su novio pertenece a una de las familias más ricas de Asia y que todas las solteras de clase alta están increíblemente celosas de ella. La joven tendrá que enfrentarse a todas ellas y demostrar a la familia de su novio que ella también es digna de estar con él.

Ficha técnica

Video trailer de la película

Enlaces de descarga

Rip de Bluray

Descargar Locamente millonarios (2018) Full 1080p Latino




Aportes de DPeliculasHDmega la pass es:dpeliculashdmega.org Aportes de CinemaniaHD la pass es:cinemaniahdd.com

Películas relacionadas

  • The mule (2018) WEB-DL 1080p Latino

    2018
    The mule (2018) WEB-DL 1080p Latino

    0.0 1h 56m 2018

    A Earl Stone (Eastwood), un octogenario que está en quiebra, solo, y que se enfrenta a la ejecución...

    Director: Clint Eastwood

    Género: Crimen

    Actores: Victor Rasuk

  • Swing (2018) WEB-DL 1080p Latino

    2018
    Swing (2018) WEB-DL 1080p Latino

    0.0 1h 44m 2018

    En una noche en la que predomina el alcohol, cuatro amigos deciden intercambiar a sus parejas. Esta decisión...

    Director: Luis Smok

    Género: Comedia

    Actores: Tiago Correa

  • Aquaman (2018) Full HD 1080p Latino

    2018
    Aquaman (2018) Full HD 1080p Latino

    5.0 2h 24m 2018

    Un icono durante más de 70 años, Aquaman (Jason Momoa) es el Rey de los Siete Mares. Este reacio gobernante...

    Director: James Wan

    Género: Acción

    Actores: Yahya Abdul-Mateen II

  • Nace Una Estrella (2018) 4K UHD HDR Latino

    2018
    Nace Una Estrella (2018) 4K UHD HDR Latino

    0.0 2h 25m 2018

    Descargar Nace Una Estrella (2018) 4K UHD HDR Latino, Mega, Google Drive. Jackson Maine es una estrella...

    Director: Bradley Cooper

    Género: 4K HDR

    Actores: Willam Belli

Comentarios 1
  • The Principal - 29 noviembre, 2018

    Como Siempre…!!…Amigo no funciona…los enlaces…sobre descargados…..gracias de todas formas