Loca por el Trabajo (2018) 1080p Latino

1.066 vistas
1 estrella2 estrellas3 estrellas4 estrellas5 estrellas (Ninguna valoración todavía)
Cargando…

Información de Loca por el Trabajo (2018) 1080p Latino

Datos de la película

  • Calidad: WEBDL
  • Audio: Español Latino AC3 5.1 BLURAY
  • Subtitulos: No
  • Resolución: 1920x804
  • Formato: MKV
  • Codec: H.264
  • Encoder: Chesse92
  • Mediainfo: Clic para Mostrar Datos Ver
  • Loca por el Trabajo (2018) 1080p Latino.mkv
    Format                      : Matroska
    Format version              : Version 4
    File size                   : 2.56 GiB
    Duration                    : 1 h 33 min
    Overall bit rate            : 3 907 kb/s
    Encoded date                : UTC 2019-03-12 22:40:22
    Writing application         : HandBrake 1.2.0 2018121700
    Writing library             : Lavf58.20.100
    ErrorDetectionType          : Per level 1

    Video
    ID                          : 1
    Format                      : AVC
    Format/Info                 : Advanced Video Codec
    Format profile              : [email protected]
    Format settings             : CABAC / 5 Ref Frames
    Format settings, CABAC      : Yes
    Format settings, ReFrames   : 5 frames
    Codec ID                    : V_MPEG4/ISO/AVC
    Duration                    : 1 h 33 min
    Bit rate                    : 3 500 kb/s
    Width                       : 1 920 pixels
    Height                      : 804 pixels
    Display aspect ratio        : 2.40:1
    Frame rate mode             : Constant
    Frame rate                  : 23.976 (24000/1001) FPS
    Color space                 : YUV
    Chroma subsampling          : 4:2:0
    Bit depth                   : 8 bits
    Scan type                   : Progressive
    Bits/(Pixel*Frame)          : 0.095
    Stream size                 : 2.22 GiB (87%)
    Writing library             : x264 core 157 r2935 545de2f
    Encoding settings           : cabac=1 / ref=5 / deblock=1:0:0 / analyse=0x3:0x113 / me=hex / subme=8 / psy=1 / psy_rd=1.00:0.00 / mixed_ref=1 / me_range=16 / chroma_me=1 / trellis=2 / 8x8dct=1 / cqm=0 / deadzone=21,11 / fast_pskip=1 / chroma_qp_offset=-2 / threads=25 / lookahead_threads=4 / sliced_threads=0 / nr=0 / decimate=1 / interlaced=0 / bluray_compat=0 / constrained_intra=0 / bframes=3 / b_pyramid=2 / b_adapt=1 / b_bias=0 / direct=3 / weightb=1 / open_gop=0 / weightp=2 / keyint=240 / keyint_min=24 / scenecut=40 / intra_refresh=0 / rc_lookahead=50 / rc=abr / mbtree=1 / bitrate=3500 / ratetol=1.0 / qcomp=0.60 / qpmin=0 / qpmax=69 / qpstep=4 / vbv_maxrate=62500 / vbv_bufsize=78125 / nal_hrd=none / filler=0 / ip_ratio=1.40 / aq=1:1.00
    Default                     : Yes
    Forced                      : No
    Color range                 : Limited
    Color primaries             : BT.709
    Transfer characteristics    : BT.709
    Matrix coefficients         : BT.709

    Audio
    ID                          : 2
    Format                      : AC-3
    Format/Info                 : Audio Coding 3
    Commercial name             : Dolby Digital
    Codec ID                    : A_AC3
    Duration                    : 1 h 33 min
    Bit rate mode               : Constant
    Bit rate                    : 448 kb/s
    Channel(s)                  : 6 channels
    Channel layout              : L R C LFE Ls Rs
    Sampling rate               : 48.0 kHz
    Frame rate                  : 31.250 FPS (1536 SPF)
    Bit depth                   : 16 bits
    Compression mode            : Lossy
    Delay relative to video     : -5 ms
    Stream size                 : 301 MiB (11%)
    Title                       : Surround
    Language                    : Spanish
    Service kind                : Complete Main
    Default                     : Yes
    Forced                      : No

    Menu
    00:00:00.000                : :Chapter 1
    00:08:09.948                : :Chapter 2
    00:16:13.389                : :Chapter 3
    00:23:17.980                : :Chapter 4
    00:30:43.508                : :Chapter 5
    00:38:39.526                : :Chapter 6
    00:45:34.774                : :Chapter 7
    00:52:53.128                : :Chapter 8
    01:02:51.184                : :Chapter 9
    01:10:15.712                : :Chapter 10
    01:18:46.513                : :Chapter 11
    01:25:58.070                : :Chapter 12

  • Peso: 2.56 GiB

Sinopsis

Alicia, una exitosa ejecutiva, adicta al trabajo, antepone las necesidades de su empresa a las de su familia. Un mal día, a causa de una absurda confusión, pierde todo lo que tiene. En medio de esta situación, se hace amiga de su alocada vecina, quien resulta ser propietaria de una sex shop. Alicia encontrará en ese fascinante lugar muy “buena vibra” y un nuevo rumbo para su vida profesional.

Ficha técnica

  • Titulo original: Loca por el Trabajo
  • Fecha de lanzamiento: 16-11-2018
  • Director: Luis Eduardo Reyes
  • Género: Comedia, HD 1080p
  • Puntuación: 0.0 0 votos
  • Duración:
    1h 34m

Video trailer de la película

Enlaces de descarga

Rip de Bluray

Descargar Loca por el Trabajo (2018) 1080p Latino




Aportes de DPeliculasHDmega la pass es:dpeliculashdmega.org Aportes de CinemaniaHD la pass es:cinemaniahdd.com
Guardado en : Comedia , HD 1080p

Películas relacionadas

  • WiFi Ralph (2018) 4K UHD HDR Latino

    2018
    WiFi Ralph (2018) 4K UHD HDR Latino

    5.0 1h 52m 2018

    Descargar WiFi Ralph (2018) 4K UHD HDR Latino, Mega, Google Drive. Ralph sale de los recreativos y......

    Director: Rich Moore

    Género: 4K HDR

    Actores: Wayne Sermon

  • Swing (2018) WEB-DL 1080p Latino

    2018
    Swing (2018) WEB-DL 1080p Latino

    0.0 1h 44m 2018

    En una noche en la que predomina el alcohol, cuatro amigos deciden intercambiar a sus parejas. Esta decisión...

    Director: Luis Smok

    Género: Comedia

    Actores: Tiago Correa

  • El último Sharknado: Ya era hora (2018) 1080p Latino

    2018
    El último Sharknado: Ya era hora (2018) 1080p Latino

    3.0 1h 30m 2018

    Todo está perdido, ¿o no? Fin desbloquea el poder de viajar en el tiempo a través de los SHARKNADOS...

    Director: Anthony C. Ferrante

    Género: Acción

    Actores: Vivica A. Fox

  • Turn Up Charlie (2019) Temporada 1 NF 1080p Latino

    2019
    Turn Up Charlie (2019) Temporada 1 NF 1080p Latino

    0.0 0h 25m 2019

    Un DJ de mala racha planea reconstruir su carrera musical mientras trabaja como niñera para la salvaje...

    Director: Idris Elba

    Género: Comedia

    Actores: Piper Perabo

Comentarios 0