×

¿Problemas para descargar con Mozilla, EDGE? Deshabilita la opción "Abrir vinculos en una pestaña nueva" tal como lo muestra ésta imagen.

Lobo Vikingo (2022) NF WEB-DL 1080p Latino

334 vistas

Información de Lobo Vikingo (2022) NF WEB-DL 1080p Latino

Datos de la película

  • Calidad: WEBDL
  • Audio: Se especifica abajo de la Sinopsis
  • Subtitulos: Español Latino SRT- FORZADOS SRT
  • Resolución: 1920x1080p
  • Formato: MKV
  • Codec: H.264
  • Encoder: Melkor
  • Mediainfo: Clic para Mostrar Datos Ver
  • Lobo Vikingo (2022) NF WebDL 1080p Latino.mkv Format                      : Matroska Format version              : Version 4 File size                   : 4.64 GiB Duration                    : 1 h 38 min Overall bit rate mode       : Variable Overall bit rate            : 6 769 kb/s Movie name                  : Viking Wolf (2022) CinemaniaHDD.Net Encoded date                : UTC 2023-02-03 10:07:35 Writing application         : mkvmerge v56.1.0 ('My Friend') 64-bit Writing library             : libebml v1.4.2 + libmatroska v1.6.4 Attachments                 : CINEMANIAHD.png Video ID                          : 1 Format                      : AVC Format/Info                 : Advanced Video Codec Format profile              : High@L4 Format settings             : CABAC / 4 Ref Frames Format settings, CABAC      : Yes Format settings, Reference  : 4 frames Codec ID                    : V_MPEG4/ISO/AVC Duration                    : 1 h 38 min Bit rate mode               : Variable Bit rate                    : 4 847 kb/s Maximum bit rate            : 20.0 Mb/s Width                       : 1 920 pixels Height                      : 1 080 pixels Display aspect ratio        : 16:9 Frame rate mode             : Constant Frame rate                  : 24.000 FPS Color space                 : YUV Chroma subsampling          : 4:2:0 Bit depth                   : 8 bits Scan type                   : Progressive Bits/(Pixel*Frame)          : 0.097 Stream size                 : 3.33 GiB (72%) Title                       : Web HD1080p [CinemaniaHDD] Writing library             : x264 core 148 r2727 7d026e8 Encoding settings           : cabac=1 / ref=4 / deblock=1:0:0 / analyse=0x3:0x111 / me=umh / subme=10 / psy=1 / psy_rd=1.00:0.00 / mixed_ref=1 / me_range=120 / chroma_me=1 / trellis=2 / 8x8dct=1 / cqm=0 / deadzone=21,11 / fast_pskip=1 / chroma_qp_offset=-2 / threads=8 / lookahead_threads=2 / sliced_threads=0 / nr=0 / decimate=1 / interlaced=0 / bluray_compat=0 / stitchable=1 / constrained_intra=0 / bframes=16 / b_pyramid=2 / b_adapt=2 / b_bias=0 / direct=3 / weightb=1 / open_gop=0 / weightp=2 / keyint=240 / keyint_min=121 / scenecut=0 / intra_refresh=0 / rc_lookahead=240 / rc=crf / mbtree=1 / crf=16.0 / qcomp=0.50 / qpmin=6 / qpmax=51 / qpstep=4 / vbv_maxrate=20000 / vbv_bufsize=25000 / crf_max=0.0 / nal_hrd=vbr / filler=0 / ip_ratio=1.40 / aq=1:0.80 Language                    : Norwegian Bokmal Default                     : Yes Forced                      : Yes Audio #1 ID                          : 2 Format                      : AC-3 Format/Info                 : Audio Coding 3 Commercial name             : Dolby Digital Codec ID                    : A_AC3 Duration                    : 1 h 38 min Bit rate mode               : Constant Bit rate                    : 640 kb/s Channel(s)                  : 6 channels Channel layout              : L R C LFE Ls Rs Sampling rate               : 48.0 kHz Frame rate                  : 31.250 FPS (1536 SPF) Compression mode            : Lossy Stream size                 : 450 MiB (9%) Title                       : Español Latino AC3 [CinemaniaHDD] Language                    : Spanish Service kind                : Complete Main Default                     : Yes Forced                      : Yes Audio #2 ID                          : 3 Format                      : E-AC-3 Format/Info                 : Enhanced AC-3 Commercial name             : Dolby Digital Plus Codec ID                    : A_EAC3 Duration                    : 1 h 38 min Bit rate mode               : Constant Bit rate                    : 640 kb/s Channel(s)                  : 6 channels Channel layout              : L R C LFE Ls Rs Sampling rate               : 48.0 kHz Frame rate                  : 31.250 FPS (1536 SPF) Compression mode            : Lossy Stream size                 : 450 MiB (9%) Title                       : Español Latino EAC3 [CinemaniaHDD] Language                    : Spanish Service kind                : Complete Main Default                     : No Forced                      : No Audio #3 ID                          : 4 Format                      : E-AC-3 Format/Info                 : Enhanced AC-3 Commercial name             : Dolby Digital Plus Codec ID                    : A_EAC3 Duration                    : 1 h 38 min Bit rate mode               : Constant Bit rate                    : 640 kb/s Channel(s)                  : 6 channels Channel layout              : L R C LFE Ls Rs Sampling rate               : 48.0 kHz Frame rate                  : 31.250 FPS (1536 SPF) Compression mode            : Lossy Stream size                 : 450 MiB (9%) Title                       : Noruego [CinemaniaHDD] Language                    : Norwegian Bokmal Service kind                : Complete Main Default                     : No Forced                      : No Text #1 ID                          : 5 Format                      : UTF-8 Codec ID                    : S_TEXT/UTF8 Codec ID/Info               : UTF-8 Plain Text Duration                    : 1 h 37 min Bit rate                    : 1 b/s Count of elements           : 39 Stream size                 : 1.13 KiB (0%) Title                       : Forzados-SRT [CinemaniaHDD] Language                    : Spanish Default                     : Yes Forced                      : Yes Text #2 ID                          : 6 Format                      : UTF-8 Codec ID                    : S_TEXT/UTF8 Codec ID/Info               : UTF-8 Plain Text Duration                    : 1 h 37 min Bit rate                    : 29 b/s Count of elements           : 599 Stream size                 : 20.9 KiB (0%) Title                       : Español-SRT [CinemaniaHDD] Language                    : Spanish Default                     : No Forced                      : No Text #3 ID                          : 7 Format                      : UTF-8 Codec ID                    : S_TEXT/UTF8 Codec ID/Info               : UTF-8 Plain Text Duration                    : 1 h 31 min Bit rate                    : 32 b/s Count of elements           : 642 Stream size                 : 22.0 KiB (0%) Title                       : Ingles-SRT [CinemaniaHDD] Language                    : English Default                     : No Forced                      : No
  • Peso: 4.64 GiB

Sinopsis

Descargar Lobo Vikingo (2022) NF WEB-DL 1080p Latino. Thale (17) acaba de mudarse con sus padres a un pequeño pueblo después de que su madre tuviera un nuevo trabajo en la policía local. Después de que una estudiante es asesinada brutalmente en una fiesta a la que asiste Thale, ella se convierte en una testigo clave. ¿El asesino era un animal? ¿Un lobo?

Español latino EAC3 & AC3 5.1 NF – Noruego EAC3 5.1 NF

Ficha técnica

Video trailer de la película

Enlaces de descarga

Rip de Bluray

Descargar Lobo Vikingo (2022) NF WEB-DL 1080p Latino




Aportes de DPeliculasHDmega la pass es:dpeliculashdmega.org Aportes de CinemaniaHD la pass es:cinemaniahdd.com Aportes recientes:cinemaniahdd.net
Guardado en : Netflix , Suspenso , Terror

Películas relacionadas

  • V for Vendetta (2005) REMUX 4K HDR Latino – CMHDD

    V for Vendetta (2005) REMUX 4K HDR Latino – CMHDD

    2006
    V for Vendetta (2005) REMUX 4K HDR Latino – CMHDD

    2h 12m 2006

    En un futuro no muy lejano, Gran Bretaña es un país totalitario dirigido con mano de hierro por un...

    Director: Tobias Asam

    Género: Acción

    Actores: Wolfgang Stegemann

  • Ringu (1998) REMUX 4K HDR Japonés – CMHDD

    Ringu (1998) REMUX 4K HDR Japonés – CMHDD

    1998
    Ringu (1998) REMUX 4K HDR Japonés – CMHDD

    1h 36m 1998

    En una pequeña y apacible localidad japonesa, entre los estudiantes circula una leyenda en torno a unos...

    Director: Hideo Nakata

    Género: Suspenso

    Actores: 竹内 結子

  • Tiburón (1975) REMUX 1080p Latino-CMHDD

    Tiburón (1975) REMUX 1080p Latino-CMHDD

    1975
    Tiburón (1975) REMUX 1080p Latino-CMHDD

    2h 4m 1975

    Descargar Tiburón (1975) REMUX 1080p Latino-CMHDD. En la costa de un pequeño pueblo del Este de Estados...

    Director: Tom Joyner

    Género: Aventura

    Actores: Ted Grossman

  • El bebé de Rosemary (1968) 1080p Latino-CMHDD

    El bebé de Rosemary (1968) 1080p Latino-CMHDD

    1968
    El bebé de Rosemary (1968) 1080p Latino-CMHDD

    2h 18m 1968

    Descargar El bebé de Rosemary (1968) 1080p Latino-CMHDD. Una joven pareja, Rosemary y Guy, se muda a...

    Director: Roman Polanski

    Género: Drama

    Actores: William Castle

descargar Lobo Vikingo (2022) NF WEB-DL 1080p Latino WEBDL 1080p gratis, Lobo Vikingo (2022) NF WEB-DL 1080p Latino WEBDL mega 1 link, Lobo Vikingo (2022) NF WEB-DL 1080p Latino WEBDL pelicula completa, descargar Lobo Vikingo (2022) NF WEB-DL 1080p Latino WEBDL gratis en mega.

Lobo Vikingo (2022) NF WEB-DL 1080p Latino pelicula full hd, Lobo Vikingo (2022) NF WEB-DL 1080p Latino mega latino, Lobo Vikingo (2022) NF WEB-DL 1080p Latino 4k latino, Lobo Vikingo (2022) NF WEB-DL 1080p Latino pelicula completa, Lobo Vikingo (2022) NF WEB-DL 1080p Latino descargar gratis, descargar Lobo Vikingo (2022) NF WEB-DL 1080p Latino pelicula latino, Lobo Vikingo (2022) NF WEB-DL 1080p Latino 1 link mega, Lobo Vikingo (2022) NF WEB-DL 1080p Latino 1 link google drive, Lobo Vikingo (2022) NF WEB-DL 1080p Latino hd 1080p latino.
Comentarios 0