×

¿Problemas para descargar con Mozilla, EDGE? Deshabilita la opción "Abrir vinculos en una pestaña nueva" tal como lo muestra ésta imagen.

Lo Que Ocurrió El 11 De Septiembre (2019) AMZN WEB-DL 1080p Latino

413 vistas

Información de Lo Que Ocurrió El 11 De Septiembre (2019) AMZN WEB-DL 1080p Latino

Datos de la película

  • Calidad: WEBDL
  • Audio: Español Latino AC3 2.0 - Ingles AC3 2.0
  • Subtitulos: Español Latino SRT- FORZADOS SRT
  • Resolución: 1920x1080
  • Formato: MKV
  • Codec: H.264
  • Encoder: cinemaniahdd
  • Mediainfo: Clic para Mostrar Datos Ver
  • Lo Que Ocurrió El 11 De Septiembre (2019) AMZN WEB-DL 1080p Latino [CNMNHDD].mkv
    Format                      : Matroska
    Format version              : Version 4
    File size                   : 1.91 GiB
    Duration                    : 29 min 53 s
    Overall bit rate            : 9 162 kb/s
    Movie name                  : Lo Que Ocurrió El 11 De Septiembre (2019) - CinemaniaHDD.Net
    Encoded date                : UTC 2020-09-11 20:29:04
    Writing application         : mkvmerge v46.0.0 ('No Deeper Escape') 64-bit
    Writing library             : libebml v1.3.10 + libmatroska v1.5.2

    Video
    ID                          : 1
    Format                      : AVC
    Format/Info                 : Advanced Video Codec
    Format profile              : High@L4
    Format settings             : CABAC / 4 Ref Frames
    Format settings, CABAC      : Yes
    Format settings, Reference  : 4 frames
    Codec ID                    : V_MPEG4/ISO/AVC
    Duration                    : 29 min 53 s
    Bit rate mode               : Constant
    Bit rate                    : 8 680 kb/s
    Nominal bit rate            : 10 000 kb/s
    Width                       : 1 920 pixels
    Height                      : 1 080 pixels
    Display aspect ratio        : 16:9
    Frame rate mode             : Constant
    Frame rate                  : 23.976 (24000/1001) FPS
    Color space                 : YUV
    Chroma subsampling          : 4:2:0
    Bit depth                   : 8 bits
    Scan type                   : Progressive
    Bits/(Pixel*Frame)          : 0.175
    Stream size                 : 1.81 GiB (95%)
    Title                       : CinemaniaHDD
    Default                     : Yes
    Forced                      : No
    Color range                 : Limited
    Color primaries             : BT.709
    Transfer characteristics    : BT.709
    Matrix coefficients         : BT.709

    Audio #1
    ID                          : 2
    Format                      : AC-3
    Format/Info                 : Audio Coding 3
    Commercial name             : Dolby Digital
    Codec ID                    : A_AC3
    Duration                    : 29 min 53 s
    Bit rate mode               : Constant
    Bit rate                    : 256 kb/s
    Channel(s)                  : 2 channels
    Channel layout              : L R
    Sampling rate               : 48.0 kHz
    Frame rate                  : 31.250 FPS (1536 SPF)
    Compression mode            : Lossy
    Stream size                 : 54.7 MiB (3%)
    Title                       : Español latino [CinemaniaHDD]
    Language                    : Spanish
    Service kind                : Complete Main
    Default                     : Yes
    Forced                      : No

    Audio #2
    ID                          : 3
    Format                      : E-AC-3
    Format/Info                 : Enhanced AC-3
    Commercial name             : Dolby Digital Plus
    Codec ID                    : A_EAC3
    Duration                    : 29 min 53 s
    Bit rate mode               : Constant
    Bit rate                    : 224 kb/s
    Channel(s)                  : 2 channels
    Channel layout              : L R
    Sampling rate               : 48.0 kHz
    Frame rate                  : 31.250 FPS (1536 SPF)
    Compression mode            : Lossy
    Stream size                 : 47.9 MiB (2%)
    Title                       : Inglés [CinemaniaHDD]
    Language                    : English
    Service kind                : Complete Main
    Default                     : No
    Forced                      : No

    Text #1
    ID                          : 4
    Format                      : UTF-8
    Codec ID                    : S_TEXT/UTF8
    Codec ID/Info               : UTF-8 Plain Text
    Duration                    : 24 min 22 s
    Bit rate                    : 12 b/s
    Count of elements           : 66
    Stream size                 : 2.21 KiB (0%)
    Title                       : Forzados [CinemaniaHDD]
    Language                    : Spanish
    Default                     : Yes
    Forced                      : Yes

    Text #2
    ID                          : 5
    Format                      : UTF-8
    Codec ID                    : S_TEXT/UTF8
    Codec ID/Info               : UTF-8 Plain Text
    Duration                    : 27 min 30 s
    Bit rate                    : 92 b/s
    Count of elements           : 497
    Stream size                 : 18.5 KiB (0%)
    Title                       : Español latino [CinemaniaHDD]
    Language                    : Spanish
    Default                     : No
    Forced                      : No

    Text #3
    ID                          : 6
    Format                      : UTF-8
    Codec ID                    : S_TEXT/UTF8
    Codec ID/Info               : UTF-8 Plain Text
    Duration                    : 28 min 24 s
    Bit rate                    : 93 b/s
    Count of elements           : 467
    Stream size                 : 19.5 KiB (0%)
    Title                       : Inglés [CinemaniaHDD]
    Language                    : English
    Default                     : No
    Forced                      : No

     

  • Peso: 1.91 GiB

Sinopsis

En este documental para toda la familia, HBO se une al Museo Tributo al 11-S para entregarnos una manera más digerible para que los niños aprendan sobre los ataques del 11 de septiembre y su impacto en la ciudad.

Ficha técnica

  • Titulo original: What Happened on September 11
  • Fecha de lanzamiento: 11-09-2019
  • Director: Amy Schatz
  • Género: Documental

Video trailer de la película

Enlaces de descarga

Rip de Bluray

Descargar Lo Que Ocurrió El 11 De Septiembre (2019) AMZN WEB-DL 1080p Latino




Aportes de DPeliculasHDmega la pass es:dpeliculashdmega.org Aportes de CinemaniaHD la pass es:cinemaniahdd.com
Guardado en : Documental

Películas relacionadas

descargar Lo Que Ocurrió El 11 De Septiembre (2019) AMZN WEB-DL 1080p Latino WEBDL 1080p gratis, Lo Que Ocurrió El 11 De Septiembre (2019) AMZN WEB-DL 1080p Latino WEBDL mega 1 link, Lo Que Ocurrió El 11 De Septiembre (2019) AMZN WEB-DL 1080p Latino WEBDL pelicula completa, descargar Lo Que Ocurrió El 11 De Septiembre (2019) AMZN WEB-DL 1080p Latino WEBDL gratis en mega.

Lo Que Ocurrió El 11 De Septiembre (2019) AMZN WEB-DL 1080p Latino pelicula full hd, Lo Que Ocurrió El 11 De Septiembre (2019) AMZN WEB-DL 1080p Latino mega latino, Lo Que Ocurrió El 11 De Septiembre (2019) AMZN WEB-DL 1080p Latino 4k latino, Lo Que Ocurrió El 11 De Septiembre (2019) AMZN WEB-DL 1080p Latino pelicula completa, Lo Que Ocurrió El 11 De Septiembre (2019) AMZN WEB-DL 1080p Latino descargar gratis, descargar Lo Que Ocurrió El 11 De Septiembre (2019) AMZN WEB-DL 1080p Latino pelicula latino, Lo Que Ocurrió El 11 De Septiembre (2019) AMZN WEB-DL 1080p Latino 1 link mega, Lo Que Ocurrió El 11 De Septiembre (2019) AMZN WEB-DL 1080p Latino 1 link google drive, Lo Que Ocurrió El 11 De Septiembre (2019) AMZN WEB-DL 1080p Latino hd 1080p latino.
Comentarios 1
  • fullmechero - 14 septiembre, 2020

    muchas gracias por otro estreno de lujo,saludos