×

¿Problemas para descargar con Mozilla, EDGE? Deshabilita la opción "Abrir vinculos en una pestaña nueva" tal como lo muestra ésta imagen.

Lo que el viento se llevó (1939) [70Th Anniversary Edition] REMUX 1080p Latino – CMHDD

375 vistas

Información de Lo que el viento se llevó (1939) [70Th Anniversary Edition] REMUX 1080p Latino – CMHDD

Datos de la película

  • Calidad: Full 1080p
  • Audio: Español Latino AC3 1.0 BLURAY - Ingles AC3 5.1 BLURAY
  • Subtitulos: Español Latino SRT
  • Resolución: 1920x1080p
  • Formato: MKV
  • Codec: H.264
  • Encoder: Dracarrys
  • Mediainfo: Clic para Mostrar Datos Ver
  • Format                      : Matroska
    Format version              : Version 4
    File size                   : 33.5 GiB
    Duration                    : 3 h 53 min
    Overall bit rate mode       : Variable
    Overall bit rate            : 20.6 Mb/s
    Movie name                  : Lo que el viento se llevó (1939) [70Th Anniversary Edition] REMUX 1080p Latino - CMHDD
    Encoded date                : UTC 2020-06-22 20:40:37
    Writing application         : mkvmerge v46.0.0 ('No Deeper Escape') 64-bit
    Writing library             : libebml v1.3.10 + libmatroska v1.5.2

    Video
    ID                          : 1
    Format                      : VC-1
    Format profile              : Advanced@L3
    Codec ID                    : V_MS/VFW/FOURCC / WVC1
    Codec ID/Hint               : Microsoft
    Duration                    : 3 h 53 min
    Bit rate                    : 18.4 Mb/s
    Width                       : 1 920 pixels
    Height                      : 1 080 pixels
    Display aspect ratio        : 16:9
    Frame rate mode             : Constant
    Frame rate                  : 23.976 (24000/1001) FPS
    Color space                 : YUV
    Chroma subsampling          : 4:2:0
    Bit depth                   : 8 bits
    Scan type                   : Progressive
    Compression mode            : Lossy
    Bits/(Pixel*Frame)          : 0.370
    Stream size                 : 30.0 GiB (89%)
    Default                     : Yes
    Forced                      : No

    Audio #1
    ID                          : 2
    Format                      : AC-3
    Format/Info                 : Audio Coding 3
    Commercial name             : Dolby Digital
    Codec ID                    : A_AC3
    Duration                    : 3 h 53 min
    Bit rate mode               : Constant
    Bit rate                    : 192 kb/s
    Channel(s)                  : 1 channel
    Channel layout              : C
    Sampling rate               : 48.0 kHz
    Frame rate                  : 31.250 FPS (1536 SPF)
    Compression mode            : Lossy
    Stream size                 : 320 MiB (1%)
    Language                    : Spanish
    Service kind                : Complete Main
    Default                     : Yes
    Forced                      : No

    Audio #2
    ID                          : 3
    Format                      : MLP FBA
    Format/Info                 : Meridian Lossless Packing FBA
    Commercial name             : Dolby TrueHD
    Codec ID                    : A_TRUEHD
    Duration                    : 3 h 53 min
    Bit rate mode               : Variable
    Bit rate                    : 1 250 kb/s
    Maximum bit rate            : 1 917 kb/s
    Channel(s)                  : 6 channels
    Channel layout              : L R C LFE Ls Rs
    Sampling rate               : 48.0 kHz
    Frame rate                  : 1 200.000 FPS (40 SPF)
    Compression mode            : Lossless
    Stream size                 : 2.04 GiB (6%)
    Language                    : English
    Default                     : No
    Forced                      : No

    Audio #3
    ID                          : 4
    Format                      : AC-3
    Format/Info                 : Audio Coding 3
    Commercial name             : Dolby Digital
    Codec ID                    : A_AC3
    Duration                    : 3 h 53 min
    Bit rate mode               : Constant
    Bit rate                    : 640 kb/s
    Channel(s)                  : 6 channels
    Channel layout              : L R C LFE Ls Rs
    Sampling rate               : 48.0 kHz
    Frame rate                  : 31.250 FPS (1536 SPF)
    Compression mode            : Lossy
    Stream size                 : 1.04 GiB (3%)
    Language                    : English
    Service kind                : Complete Main
    Default                     : No
    Forced                      : No

    Text #1
    ID                          : 5
    Format                      : PGS
    Muxing mode                 : zlib
    Codec ID                    : S_HDMV/PGS
    Codec ID/Info               : Picture based subtitle format used on BDs/HD-DVDs
    Duration                    : 3 h 53 min
    Bit rate                    : 31.6 kb/s
    Count of elements           : 6060
    Stream size                 : 52.7 MiB (0%)
    Language                    : Spanish
    Default                     : No
    Forced                      : No

    Text #2
    ID                          : 6
    Format                      : UTF-8
    Codec ID                    : S_TEXT/UTF8
    Codec ID/Info               : UTF-8 Plain Text
    Duration                    : 3 h 53 min
    Bit rate                    : 59 b/s
    Count of elements           : 3030
    Stream size                 : 101 KiB (0%)
    Language                    : Spanish
    Default                     : No
    Forced                      : No

  • Peso: 33.5 GiB

Sinopsis

Georgia, 1861. En la elegante mansión sureña de Tara, vive Scarlett O’Hara, la joven más bella, caprichosa y egoísta de la región. Ella suspira por el amor de Ashley, pero él está prometido con su prima, la dulce y bondadosa Melanie. Corren todavía tiempos felices en Tara, pero por poco tiempo, porque la Guerra de Secesión (1861-1865) está a punto de estallar. En la última fiesta, celebrada antes del comienzo de las hostilidades entre el norte y el sur, Scarlett conoce al simpático, cínico y apuesto Rhett Butler, un vividor arrogante y aventurero, que sólo piensa en sí mismo y que no tiene ninguna intención de participar en el conflicto. Lo que él desea es hacerse rico y conquistar el corazón de la hermosa Scarlett.

Ficha técnica

Video trailer de la película

Enlaces de descarga

Rip de Bluray

Descargar Lo que el viento se llevó (1939) [70Th Anniversary Edition] REMUX 1080p Latino – CMHDD




Aportes de DPeliculasHDmega la pass es:dpeliculashdmega.org Aportes de CinemaniaHD la pass es:cinemaniahdd.com
Guardado en : Bélica , Drama , Remux , Romance

Películas relacionadas

  • Hombre de familia (2000) REMUX 1080p Latino

    Hombre de familia (2000) REMUX 1080p Latino

    2000
    Hombre de familia (2000) REMUX 1080p Latino

    2h 1m 2000

    Descargar Hombre de familia (2000) REMUX 1080p Latino. Jack Campbell es un egocéntrico broker de Wall...

    Director: Robert Schroer

    Género: Comedia

    Actores: Wass Stevens

  • Anon (2018) REMUX 1080p Latino

    Anon (2018) REMUX 1080p Latino

    2018
    Anon (2018) REMUX 1080p Latino

    1h 40m 2018

    Descargar Anon (2018) REMUX 1080p Latino. Anon nos lleva hasta un futuro no muy lejano al estilo soviético,...

    Director: Sarah Campbell

    Género: Ciencia ficción

    Actores: Zion Lee

  • Te Amo Brother (2009) REMUX 1080p Latino

    Te Amo Brother (2009) REMUX 1080p Latino

    2009
    Te Amo Brother (2009) REMUX 1080p Latino

    1h 45m 2009

    Descargar Te Amo Brother (2009) REMUX 1080p Latino. Peter Klaven (Paul Rudd) es un joven que vive muy...

    Director: Scott Robertson

    Género: Comedia

    Actores: Vicki Davis

descargar Lo que el viento se llevó (1939) [70Th Anniversary Edition] REMUX 1080p Latino – CMHDD Full 1080p 1080p gratis, Lo que el viento se llevó (1939) [70Th Anniversary Edition] REMUX 1080p Latino – CMHDD Full 1080p mega 1 link, Lo que el viento se llevó (1939) [70Th Anniversary Edition] REMUX 1080p Latino – CMHDD Full 1080p pelicula completa, descargar Lo que el viento se llevó (1939) [70Th Anniversary Edition] REMUX 1080p Latino – CMHDD Full 1080p gratis en mega.

Lo que el viento se llevó (1939) [70Th Anniversary Edition] REMUX 1080p Latino – CMHDD pelicula full hd, Lo que el viento se llevó (1939) [70Th Anniversary Edition] REMUX 1080p Latino – CMHDD mega latino, Lo que el viento se llevó (1939) [70Th Anniversary Edition] REMUX 1080p Latino – CMHDD 4k latino, Lo que el viento se llevó (1939) [70Th Anniversary Edition] REMUX 1080p Latino – CMHDD pelicula completa, Lo que el viento se llevó (1939) [70Th Anniversary Edition] REMUX 1080p Latino – CMHDD descargar gratis, descargar Lo que el viento se llevó (1939) [70Th Anniversary Edition] REMUX 1080p Latino – CMHDD pelicula latino, Lo que el viento se llevó (1939) [70Th Anniversary Edition] REMUX 1080p Latino – CMHDD 1 link mega, Lo que el viento se llevó (1939) [70Th Anniversary Edition] REMUX 1080p Latino – CMHDD 1 link google drive, Lo que el viento se llevó (1939) [70Th Anniversary Edition] REMUX 1080p Latino – CMHDD hd 1080p latino.
Comentarios 0