×

¿Problemas para descargar con Mozilla, EDGE? Deshabilita la opción "Abrir vinculos en una pestaña nueva" tal como lo muestra ésta imagen.

Lo que el viento se llevó (1939) [70Th Anniversary Edition] HD 1080p Latino – CMHDD

329 vistas

Información de Lo que el viento se llevó (1939) [70Th Anniversary Edition] HD 1080p Latino – CMHDD

Datos de la película

  • Calidad: 1080p
  • Audio: Español Latino AC3 1.0 BLURAY - Ingles AC3 5.1 BLURAY
  • Subtitulos: Español Latino SRT- FORZADOS SRT
  • Resolución: 1480x1080p
  • Formato: MKV
  • Codec: H.264
  • Encoder: Dracarys
  • Mediainfo: Clic para Mostrar Datos Ver
  • Format                      : Matroska
    Format version              : Version 4
    File size                   : 7.02 GiB
    Duration                    : 3 h 53 min
    Overall bit rate            : 4 309 kb/s
    Movie name                  : Lo que el viento se llevó (1939) [70Th Anniversary Edition] HD 1080p Latino - CMHDD
    Encoded date                : UTC 2020-06-22 20:45:32
    Writing application         : mkvmerge v46.0.0 ('No Deeper Escape') 64-bit
    Writing library             : libebml v1.3.10 + libmatroska v1.5.2

    Video
    ID                          : 1
    Format                      : AVC
    Format/Info                 : Advanced Video Codec
    Format profile              : High@L4.1
    Format settings             : CABAC / 5 Ref Frames
    Format settings, CABAC      : Yes
    Format settings, Reference  : 5 frames
    Codec ID                    : V_MPEG4/ISO/AVC
    Duration                    : 3 h 53 min
    Bit rate                    : 3 500 kb/s
    Width                       : 1 480 pixels
    Height                      : 1 080 pixels
    Display aspect ratio        : 1.370
    Frame rate mode             : Constant
    Frame rate                  : 23.976 (24000/1001) FPS
    Color space                 : YUV
    Chroma subsampling          : 4:2:0
    Bit depth                   : 8 bits
    Scan type                   : Progressive
    Bits/(Pixel*Frame)          : 0.091
    Stream size                 : 5.66 GiB (81%)
    Writing library             : x264 core 157 r2935 545de2f
    Encoding settings           : cabac=1 / ref=5 / deblock=1:0:0 / analyse=0x3:0x113 / me=hex / subme=8 / psy=1 / psy_rd=1.00:0.00 / mixed_ref=1 / me_range=16 / chroma_me=1 / trellis=2 / 8x8dct=1 / cqm=0 / deadzone=21,11 / fast_pskip=1 / chroma_qp_offset=-2 / threads=24 / lookahead_threads=4 / sliced_threads=0 / nr=0 / decimate=1 / interlaced=0 / bluray_compat=0 / constrained_intra=0 / bframes=3 / b_pyramid=2 / b_adapt=1 / b_bias=0 / direct=3 / weightb=1 / open_gop=0 / weightp=2 / keyint=240 / keyint_min=24 / scenecut=40 / intra_refresh=0 / rc_lookahead=50 / rc=abr / mbtree=1 / bitrate=3500 / ratetol=1.0 / qcomp=0.60 / qpmin=0 / qpmax=69 / qpstep=4 / vbv_maxrate=62500 / vbv_bufsize=78125 / nal_hrd=none / filler=0 / ip_ratio=1.40 / aq=1:1.00
    Default                     : Yes
    Forced                      : No
    Color range                 : Limited
    Color primaries             : BT.709
    Transfer characteristics    : BT.709
    Matrix coefficients         : BT.709

    Audio #1
    ID                          : 2
    Format                      : AC-3
    Format/Info                 : Audio Coding 3
    Commercial name             : Dolby Digital
    Codec ID                    : A_AC3
    Duration                    : 3 h 53 min
    Bit rate mode               : Constant
    Bit rate                    : 192 kb/s
    Channel(s)                  : 1 channel
    Channel layout              : C
    Sampling rate               : 48.0 kHz
    Frame rate                  : 31.250 FPS (1536 SPF)
    Compression mode            : Lossy
    Stream size                 : 320 MiB (4%)
    Language                    : Spanish
    Service kind                : Complete Main
    Default                     : Yes
    Forced                      : No

    Audio #2
    ID                          : 3
    Format                      : AC-3
    Format/Info                 : Audio Coding 3
    Commercial name             : Dolby Digital
    Codec ID                    : A_AC3
    Duration                    : 3 h 53 min
    Bit rate mode               : Constant
    Bit rate                    : 640 kb/s
    Channel(s)                  : 6 channels
    Channel layout              : L R C LFE Ls Rs
    Sampling rate               : 48.0 kHz
    Frame rate                  : 31.250 FPS (1536 SPF)
    Compression mode            : Lossy
    Stream size                 : 1.04 GiB (15%)
    Language                    : English
    Service kind                : Complete Main
    Default                     : No
    Forced                      : No

    Text
    ID                          : 4
    Format                      : UTF-8
    Codec ID                    : S_TEXT/UTF8
    Codec ID/Info               : UTF-8 Plain Text
    Duration                    : 3 h 53 min
    Bit rate                    : 59 b/s
    Count of elements           : 3030
    Stream size                 : 101 KiB (0%)
    Language                    : Spanish
    Default                     : No
    Forced                      : No

    Menu
    00:00:00.000                : :Chapter 1
    00:02:35.155                : :Chapter 2
    00:06:46.907                : :Chapter 3
    00:09:38.995                : :Chapter 4
    00:15:25.425                : :Chapter 5
    00:17:53.656                : :Chapter 6
    00:21:42.176                : :Chapter 7
    00:25:46.879                : :Chapter 8
    00:28:35.005                : :Chapter 9
    00:32:35.036                : :Chapter 10
    00:35:39.346                : :Chapter 11
    00:38:09.662                : :Chapter 12
    00:42:22.248                : :Chapter 13
    00:46:02.551                : :Chapter 14
    00:48:47.091                : :Chapter 15
    00:52:02.161                : :Chapter 16
    00:55:26.406                : :Chapter 17
    00:58:42.769                : :Chapter 18
    01:01:42.449                : :Chapter 19
    01:04:45.799                : :Chapter 20
    01:10:41.863                : :Chapter 21
    01:14:50.444                : :Chapter 22
    01:17:06.914                : :Chapter 23
    01:18:53.979                : :Chapter 24
    01:23:06.732                : :Chapter 25
    01:27:39.713                : :Chapter 26
    01:31:47.293                : :Chapter 27
    01:34:58.234                : :Chapter 28
    01:38:03.378                : :Chapter 29
    01:41:58.237                : :Chapter 30
    01:44:12.955                : :Chapter 31
    01:48:12.486                : :Chapter 32
    01:49:42.951                : :Chapter 33
    01:52:41.505                : :Chapter 34
    01:57:31.419                : :Chapter 35
    02:01:43.171                : :Chapter 36
    02:03:47.337                : :Chapter 37
    02:09:19.919                : :Chapter 38
    02:11:21.207                : :Chapter 39
    02:14:24.390                : :Chapter 40
    02:19:39.872                : :Chapter 41
    02:25:18.501                : :Chapter 42
    02:29:54.402                : :Chapter 43
    02:32:43.071                : :Chapter 44
    02:37:26.687                : :Chapter 45
    02:42:47.466                : :Chapter 46
    02:46:00.534                : :Chapter 47
    02:53:12.215                : :Chapter 48
    02:57:12.747                : :Chapter 49
    03:00:25.481                : :Chapter 50
    03:05:08.848                : :Chapter 51
    03:08:46.941                : :Chapter 52
    03:12:17.693                : :Chapter 53
    03:14:08.637                : :Chapter 54
    03:18:52.003                : :Chapter 55
    03:24:14.117                : :Chapter 56
    03:29:55.583                : :Chapter 57
    03:32:26.400                : :Chapter 58
    03:35:29.708                : :Chapter 59
    03:39:29.531                : :Chapter 60
    03:41:43.582                : :Chapter 61
    03:46:43.381                : :Chapter 62
    03:48:56.932                : :Chapter 6380

  • Peso: 7.02 GiB

Sinopsis

Georgia, 1861. En la elegante mansión sureña de Tara, vive Scarlett O’Hara, la joven más bella, caprichosa y egoísta de la región. Ella suspira por el amor de Ashley, pero él está prometido con su prima, la dulce y bondadosa Melanie. Corren todavía tiempos felices en Tara, pero por poco tiempo, porque la Guerra de Secesión (1861-1865) está a punto de estallar. En la última fiesta, celebrada antes del comienzo de las hostilidades entre el norte y el sur, Scarlett conoce al simpático, cínico y apuesto Rhett Butler, un vividor arrogante y aventurero, que sólo piensa en sí mismo y que no tiene ninguna intención de participar en el conflicto. Lo que él desea es hacerse rico y conquistar el corazón de la hermosa Scarlett.

Ficha técnica

Video trailer de la película

Enlaces de descarga

Rip de Bluray

Descargar Lo que el viento se llevó (1939) [70Th Anniversary Edition] HD 1080p Latino – CMHDD




Aportes de DPeliculasHDmega la pass es:dpeliculashdmega.org Aportes de CinemaniaHD la pass es:cinemaniahdd.com
Guardado en : Bélica , Drama , HD 1080p , Romance

Películas relacionadas

descargar Lo que el viento se llevó (1939) [70Th Anniversary Edition] HD 1080p Latino – CMHDD 1080p 1080p gratis, Lo que el viento se llevó (1939) [70Th Anniversary Edition] HD 1080p Latino – CMHDD 1080p mega 1 link, Lo que el viento se llevó (1939) [70Th Anniversary Edition] HD 1080p Latino – CMHDD 1080p pelicula completa, descargar Lo que el viento se llevó (1939) [70Th Anniversary Edition] HD 1080p Latino – CMHDD 1080p gratis en mega.

Lo que el viento se llevó (1939) [70Th Anniversary Edition] HD 1080p Latino – CMHDD pelicula full hd, Lo que el viento se llevó (1939) [70Th Anniversary Edition] HD 1080p Latino – CMHDD mega latino, Lo que el viento se llevó (1939) [70Th Anniversary Edition] HD 1080p Latino – CMHDD 4k latino, Lo que el viento se llevó (1939) [70Th Anniversary Edition] HD 1080p Latino – CMHDD pelicula completa, Lo que el viento se llevó (1939) [70Th Anniversary Edition] HD 1080p Latino – CMHDD descargar gratis, descargar Lo que el viento se llevó (1939) [70Th Anniversary Edition] HD 1080p Latino – CMHDD pelicula latino, Lo que el viento se llevó (1939) [70Th Anniversary Edition] HD 1080p Latino – CMHDD 1 link mega, Lo que el viento se llevó (1939) [70Th Anniversary Edition] HD 1080p Latino – CMHDD 1 link google drive, Lo que el viento se llevó (1939) [70Th Anniversary Edition] HD 1080p Latino – CMHDD hd 1080p latino.
Comentarios 0