Lo que de verdad importa (2017) Full 1080p Latino

3.777 vistas
1 estrella2 estrellas3 estrellas4 estrellas5 estrellas (1 votos, promedio: 5,00 de 5)
Cargando…

Información de Lo que de verdad importa (2017) Full 1080p Latino

Datos de la película

  • Calidad: Full 1080p
  • Audio: Español Latino AC3 2.0 DVD - Ingles DTS 5.1 BLURAY
  • Subtitulos: Español PGS - Ingles PGS
  • Resolución: 1920X1080
  • Formato: MKV
  • Codec: H.264
  • Encoder: Dpelis
  • Mediainfo: Clic para Mostrar Datos Ver
  • Format                                   : Matroska
    Format version                           : Version 4 / Version 2
    File size                                : 5.42 GiB
    Duration                                 : 1 h 48 min
    Overall bit rate                         : 7 173 kb/s
    Movie name                               : dpeliculashdmega.org
    Encoded date                             : UTC 2017-11-18 18:14:38 / UTC 2017-11-04T03:51:21Z
    Writing application                      : mkvmerge v15.0.0 ('Duel with the Devil') 64-bit
    Writing library                          : libebml v1.3.5 + libmatroska v1.4.5 / Lavf57.7.2

    Video
    ID                                       : 1
    Format                                   : AVC
    Format/Info                              : Advanced Video Codec
    Format profile                           : High@L4.1
    Format settings                          : CABAC / 4 Ref Frames
    Format settings, CABAC                   : Yes
    Format settings, RefFrames               : 4 frames
    Codec ID                                 : V_MPEG4/ISO/AVC
    Duration                                 : 1 h 48 min
    Bit rate                                 : 3 564 kb/s
    Width                                    : 1 920 pixels
    Height                                   : 1 080 pixels
    Display aspect ratio                     : 16:9
    Frame rate mode                          : Constant
    Frame rate                               : 24.000 FPS
    Color space                              : YUV
    Chroma subsampling                       : 4:2:0
    Bit depth                                : 8 bits
    Scan type                                : Progressive
    Bits/(Pixel*Frame)                       : 0.072
    Stream size                              : 2.70 GiB (50%)
    Title                                    : Lo que de verdad importa (2017) Full 1080p Latino
    Writing library                          : x264 core 148 r2708 86b7198
    Encoding settings                        : cabac=1 / ref=4 / deblock=1:0:0 / analyse=0x3:0x133 / me=esa / subme=10 / psy=1 / psy_rd=1.00:0.00 / mixed_ref=1 / me_range=24 / chroma_me=1 / trellis=2 / 8x8dct=1 / cqm=0 / deadzone=21,11 / fast_pskip=1 / chroma_qp_offset=-2 / threads=34 / lookahead_threads=5 / sliced_threads=0 / nr=0 / decimate=1 / interlaced=0 / bluray_compat=0 / constrained_intra=0 / bframes=8 / b_pyramid=2 / b_adapt=2 / b_bias=0 / direct=3 / weightb=1 / open_gop=0 / weightp=2 / keyint=240 / keyint_min=24 / scenecut=40 / intra_refresh=0 / rc_lookahead=60 / rc=crf / mbtree=1 / crf=20.0 / qcomp=0.60 / qpmin=0 / qpmax=69 / qpstep=4 / vbv_maxrate=62500 / vbv_bufsize=78125 / crf_max=0.0 / nal_hrd=none / filler=0 / ip_ratio=1.40 / aq=1:1.00
    Language                                 : Spanish
    Default                                  : Yes
    Forced                                   : No
    Color range                              : Limited
    Color primaries                          : BT.709
    Transfer characteristics                 : BT.709
    Matrix coefficients                      : BT.709
    Statistics Tags Issue                    : mkvmerge v15.0.0 ('Duel with the Devil') 64-bit 2017-11-18 18:14:38 / mkvmerge v15.0.0 ('Duel with the Devil') 64-bit 2017-11-18 18:14:38 / UTC 2017-11-04T03:51:21Z
    FromStats_BitRate                        : 3694106
    FromStats_Duration                       : 01:48:16.000000000
    FromStats_FrameCount                     : 155904
    FromStats_StreamSize                     : 2999614214

    Audio #1
    ID                                       : 2
    Format                                   : AC-3
    Format/Info                              : Audio Coding 3
    Format settings, Endianness              : Big
    Codec ID                                 : A_AC3
    Duration                                 : 1 h 48 min
    Bit rate mode                            : Constant
    Bit rate                                 : 448 kb/s
    Channel(s)                               : 6 channels
    Channel positions                        : Front: L C R, Side: L R, LFE
    Sampling rate                            : 48.0 kHz
    Frame rate                               : 31.250 FPS (1536 SPF)
    Bit depth                                : 16 bits
    Compression mode                         : Lossy
    Stream size                              : 347 MiB (6%)
    Title                                    : Latino-AC3
    Language                                 : Spanish
    Service kind                             : Complete Main
    Default                                  : Yes
    Forced                                   : No
    Statistics Tags Issue                    : mkvmerge v15.0.0 ('Duel with the Devil') 64-bit 2017-11-18 18:14:38 / mkvmerge v15.0.0 ('Duel with the Devil') 64-bit 2017-11-18 18:14:38 / UTC 2017-11-04T03:51:21Z
    FromStats_BitRate                        : 448000
    FromStats_Duration                       : 01:48:15.840000000
    FromStats_FrameCount                     : 202995
    FromStats_StreamSize                     : 363767040

    Audio #2
    ID                                       : 3
    Format                                   : DTS
    Format/Info                              : Digital Theater Systems
    Mode                                     : 16
    Format settings, Endianness              : Big
    Codec ID                                 : A_DTS
    Duration                                 : 1 h 48 min
    Bit rate mode                            : Constant
    Bit rate                                 : 1 509 kb/s
    Channel(s)                               : 6 channels
    Channel positions                        : Front: L C R, Side: L R, LFE
    Sampling rate                            : 48.0 kHz
    Frame rate                               : 93.750 FPS (512 SPF)
    Bit depth                                : 24 bits
    Compression mode                         : Lossy
    Stream size                              : 1.14 GiB (21%)
    Title                                    : Castellano-DTS
    Language                                 : Spanish
    Default                                  : No
    Forced                                   : No
    Statistics Tags Issue                    : mkvmerge v15.0.0 ('Duel with the Devil') 64-bit 2017-11-18 18:14:38 / mkvmerge v15.0.0 ('Duel with the Devil') 64-bit 2017-11-18 18:14:38 / UTC 2017-11-04T03:51:21Z
    FromStats_BitRate                        : 1508999
    FromStats_Duration                       : 01:48:15.990000000
    FromStats_FrameCount                     : 608999
    FromStats_StreamSize                     : 1225305988

    Audio #3
    ID                                       : 4
    Format                                   : DTS
    Format/Info                              : Digital Theater Systems
    Mode                                     : 16
    Format settings, Endianness              : Big
    Codec ID                                 : A_DTS
    Duration                                 : 1 h 48 min
    Bit rate mode                            : Constant
    Bit rate                                 : 1 509 kb/s
    Channel(s)                               : 6 channels
    Channel positions                        : Front: L C R, Side: L R, LFE
    Sampling rate                            : 48.0 kHz
    Frame rate                               : 93.750 FPS (512 SPF)
    Bit depth                                : 24 bits
    Compression mode                         : Lossy
    Stream size                              : 1.14 GiB (21%)
    Title                                    : Ingles-DTS
    Language                                 : English
    Default                                  : No
    Forced                                   : No
    Statistics Tags Issue                    : mkvmerge v15.0.0 ('Duel with the Devil') 64-bit 2017-11-18 18:14:38 / mkvmerge v15.0.0 ('Duel with the Devil') 64-bit 2017-11-18 18:14:38 / UTC 2017-11-04T03:51:21Z
    FromStats_BitRate                        : 1508999
    FromStats_Duration                       : 01:48:15.990000000
    FromStats_FrameCount                     : 608999
    FromStats_StreamSize                     : 1225305988

    Text
    ID                                       : 5
    Format                                   : PGS
    Muxing mode                              : zlib
    Codec ID                                 : S_HDMV/PGS
    Codec ID/Info                            : Picture based subtitle format used on BDs/HD-DVDs
    Language                                 : Spanish
    Default                                  : No
    Forced                                   : No
    Statistics Tags Issue                    : mkvmerge v15.0.0 ('Duel with the Devil') 64-bit 2017-11-18 18:14:38 / mkvmerge v15.0.0 ('Duel with the Devil') 64-bit 2017-11-18 18:14:38 / UTC 2017-11-04T03:51:21Z
    FromStats_BitRate                        : 36936
    FromStats_Duration                       : 01:41:11.209000000
    FromStats_FrameCount                     : 2711
    FromStats_StreamSize                     : 28031012

    Menu
    00:00:00.000                             : :Chapter 1
    00:13:45.250                             : :Chapter 2
    00:27:38.750                             : :Chapter 3
    00:39:02.583                             : :Chapter 4
    00:50:08.875                             : :Chapter 5
    01:03:48.625                             : :Chapter 6
    01:18:40.833                             : :Chapter 7
    01:31:35.833                             : :Chapter 8

  • Peso: 5.42 GiB

Sinopsis

Alex vive en Inglaterrra, trabaja arreglando aparatos eléctricos en una empresa que no va bien económicamente, se acuesta con mujeres casadas y bebe alcohol como si no hubiera mañana. Su vida es un completo desastre hasta que un día, su tío Raymond le propone pagar todas sus deudas a cambio de irse a vivir al extranjero durante un año, en concreto, a Nueva Escocia. Una vez allí, el joven intenta buscar trabajo en la pequeña localidad en la que vive y descubre que tiene el don de curar a las personas, pero ni siquiera cree en su propia habilidad. En su lucha por comprender su nueva realidad, una adolescente con cáncer le mostrará el camino.

 

 

Ficha técnica

  • Titulo original: The Healer
  • Fecha de lanzamiento: 17-02-2017 (Canada, Spain, United States of America)
  • Director: Paco Arango
  • Género: Castellano, Comedia, Drama, Familia
  • Puntuación: 5.0 1 votos
  • Duración:
    1 h 48 min

Video trailer de la película

Enlaces de descarga

Rip de Bluray

Descargar Lo que de verdad importa (2017) Full 1080p Latino




Aportes de DPeliculasHDmega la pass es:dpeliculashdmega.org Aportes de CinemaniaHD la pass es:cinemaniahdd.com
Guardado en : Castellano , Comedia , Drama , Familia

Películas relacionadas

  • Arrow (2018) Temporada 07 AMZN Web-DL 1080p Latino

    2012
    Arrow (2018) Temporada 07 AMZN Web-DL 1080p Latino

    2.7 0h 42m 2012

    Descargar Arrow Temporada 07 AMZN Web-DL 1080p Latino; Mega, Google Drive. No ha habido escasez de llamadas...

    Director: Marc Guggenheim

    Género: Action & Adventure

    Actores: Stephen Amell

  • Tiger (2018) 1080p Latino

    2018
    Tiger (2018) 1080p Latino

    1.0 1h 40m 2018

    Descargar Tiger (2018) 1080p Latino, Mega, Google Drive. Tiger se inspira en la historia real de Pardeep...

    Director: Alister Grierson

    Género: Drama

    Actores: Prem Singh

  • Mi cena con Hervé (2018) Web-DL AMZN 1080p Latino

    2018
    Mi cena con Hervé (2018) Web-DL AMZN 1080p Latino

    5.0 1h 50m 2018

    Descargar Mi cena con Hervé (2018) Web-DL AMZN 1080p Latino, Mega, Google Drive. Biopic sobre el actor...

    Director: Sacha Gervasi

    Género: Drama

    Actores: Wallace Langham

Comentarios 6
  • Messer - 08 noviembre, 2017

    La subiran en latino?

    • dpelis - 08 noviembre, 2017

      es una pelicula de espana. nose si saldra latino, pero si sale se resubira

  • Messer - 06 noviembre, 2017

    En Youtube hay una version en latino quisiera saber si la subiras en latino :/

    • dpelis - 10 noviembre, 2017

      cuando salga un version final dvd o captura excelente.

  • clafat23 - 05 noviembre, 2017

    Saldrá esta película en latino?

    • dpelis - 11 noviembre, 2017

      esperems q si