×

¿Problemas para descargar con Mozilla, EDGE? Deshabilita la opción "Abrir vinculos en una pestaña nueva" tal como lo muestra ésta imagen.

Llego a mí (2023) AMZN WEB-DL 1080p Latino

63 vistas

Información de Llego a mí (2023) AMZN WEB-DL 1080p Latino

Datos de la película

  • Calidad: WEBDL
  • Audio: Español Latino AC3 5.1 WEB-DL - Ingles AC3 5.1 WEB-DL
  • Subtitulos: Español Latino SRT- FORZADOS SRT
  • Resolución: 1920x1080p
  • Formato: MKV
  • Codec: H.264
  • Encoder: Melkor
  • Mediainfo: Clic para Mostrar Datos Ver
  • She Came to Me (2023) AMZN WEB 1080p Latino.mkv
    Format                      : Matroska
    Format version              : Version 4
    File size                   : 7.30 GiB
    Duration                    : 1 h 41 min
    Overall bit rate            : 10.3 Mb/s
    Movie name                  : She Came to Me (2023) CinemaniaHDD.Net
    Encoded date                : UTC 2024-02-19 04:55:18
    Writing application         : mkvmerge v56.1.0 ('My Friend') 64-bit
    Writing library             : libebml v1.4.2 + libmatroska v1.6.4
    Attachments                 : CINEMANIAHD.png
    Site                        : CinemaniaHDD.Net
    Uploader                    : Melkor

    Video
    ID                          : 1
    Format                      : AVC
    Format/Info                 : Advanced Video Codec
    Format profile              : High@L4
    Format settings             : CABAC / 4 Ref Frames
    Format settings, CABAC      : Yes
    Format settings, Reference  : 4 frames
    Codec ID                    : V_MPEG4/ISO/AVC
    Duration                    : 1 h 41 min
    Bit rate mode               : Constant
    Bit rate                    : 9 227 kb/s
    Nominal bit rate            : 10 000 kb/s
    Width                       : 1 920 pixels
    Height                      : 1 080 pixels
    Display aspect ratio        : 16:9
    Frame rate mode             : Constant
    Frame rate                  : 23.976 (24000/1001) FPS
    Color space                 : YUV
    Chroma subsampling          : 4:2:0
    Bit depth                   : 8 bits
    Scan type                   : Progressive
    Bits/(Pixel*Frame)          : 0.186
    Stream size                 : 6.57 GiB (90%)
    Title                       : Web HD1080p [CinemaniaHDD]
    Language                    : English
    Default                     : Yes
    Forced                      : Yes
    Color range                 : Limited
    Color primaries             : BT.709
    Transfer characteristics    : BT.709
    Matrix coefficients         : BT.709

    Audio #1
    ID                          : 2
    Format                      : AC-3
    Format/Info                 : Audio Coding 3
    Commercial name             : Dolby Digital
    Codec ID                    : A_AC3
    Duration                    : 1 h 41 min
    Bit rate mode               : Constant
    Bit rate                    : 384 kb/s
    Channel(s)                  : 6 channels
    Channel layout              : L R C LFE Ls Rs
    Sampling rate               : 48.0 kHz
    Frame rate                  : 31.250 FPS (1536 SPF)
    Compression mode            : Lossy
    Stream size                 : 280 MiB (4%)
    Title                       : Español Latino [CinemaniaHDD]
    Language                    : Spanish
    Service kind                : Complete Main
    Default                     : Yes
    Forced                      : Yes

    Audio #2
    ID                          : 3
    Format                      : E-AC-3
    Format/Info                 : Enhanced AC-3
    Commercial name             : Dolby Digital Plus
    Codec ID                    : A_EAC3
    Duration                    : 1 h 41 min
    Bit rate mode               : Constant
    Bit rate                    : 640 kb/s
    Channel(s)                  : 6 channels
    Channel layout              : L R C LFE Ls Rs
    Sampling rate               : 48.0 kHz
    Frame rate                  : 31.250 FPS (1536 SPF)
    Compression mode            : Lossy
    Stream size                 : 467 MiB (6%)
    Title                       : Ingles [CinemaniaHDD]
    Language                    : English
    Service kind                : Complete Main
    Default                     : No
    Forced                      : No

    Text #1
    ID                          : 4
    Format                      : UTF-8
    Codec ID                    : S_TEXT/UTF8
    Codec ID/Info               : UTF-8 Plain Text
    Duration                    : 1 h 21 min
    Bit rate                    : 3 b/s
    Count of elements           : 68
    Stream size                 : 2.22 KiB (0%)
    Title                       : Forzados-SRT [CinemaniaHDD]
    Language                    : Spanish
    Default                     : Yes
    Forced                      : Yes

    Text #2
    ID                          : 5
    Format                      : UTF-8
    Codec ID                    : S_TEXT/UTF8
    Codec ID/Info               : UTF-8 Plain Text
    Duration                    : 1 h 36 min
    Bit rate                    : 60 b/s
    Count of elements           : 1294
    Stream size                 : 43.1 KiB (0%)
    Title                       : Español-SRT [CinemaniaHDD]
    Language                    : Spanish
    Default                     : No
    Forced                      : No

    Text #3
    ID                          : 6
    Format                      : UTF-8
    Codec ID                    : S_TEXT/UTF8
    Codec ID/Info               : UTF-8 Plain Text
    Duration                    : 1 h 34 min
    Bit rate                    : 65 b/s
    Count of elements           : 1584
    Stream size                 : 45.0 KiB (0%)
    Title                       : Ingles-SRT [CinemaniaHDD]
    Language                    : English
    Default                     : No
    Forced                      : No

  • Peso: 7.30 GiB

Sinopsis

Descargar Llego a mí (2023) AMZN WEB-DL 1080p Latino. El compositor Steven Lauddem sufre un bloqueo creativo que le impide terminar la partitura de su gran ópera de regreso. Cuando Patricia, su ex terapeuta convertida en esposa, le sugiere reavivar su creatividad perdiéndose en la ciudad, Steven sale en busca de inspiración. Su revelación se produce después de conocer a una mujer enérgica llamada Katrina y descubrir que su vida tiene mucho más potencial del que esperaba o jamás hubiera imaginado.

Ficha técnica

Video trailer de la película

Enlaces de descarga

Rip de Bluray

Descargar Llego a mí (2023) AMZN WEB-DL 1080p Latino




Aportes de DPeliculasHDmega la pass es:dpeliculashdmega.org Aportes de CinemaniaHD la pass es:cinemaniahdd.com Aportes recientes:cinemaniahdd.net
Guardado en : Comedia , Drama , Romance

Películas relacionadas

descargar Llego a mí (2023) AMZN WEB-DL 1080p Latino WEBDL 1080p gratis, Llego a mí (2023) AMZN WEB-DL 1080p Latino WEBDL mega 1 link, Llego a mí (2023) AMZN WEB-DL 1080p Latino WEBDL pelicula completa, descargar Llego a mí (2023) AMZN WEB-DL 1080p Latino WEBDL gratis en mega.

Llego a mí (2023) AMZN WEB-DL 1080p Latino pelicula full hd, Llego a mí (2023) AMZN WEB-DL 1080p Latino mega latino, Llego a mí (2023) AMZN WEB-DL 1080p Latino 4k latino, Llego a mí (2023) AMZN WEB-DL 1080p Latino pelicula completa, Llego a mí (2023) AMZN WEB-DL 1080p Latino descargar gratis, descargar Llego a mí (2023) AMZN WEB-DL 1080p Latino pelicula latino, Llego a mí (2023) AMZN WEB-DL 1080p Latino 1 link mega, Llego a mí (2023) AMZN WEB-DL 1080p Latino 1 link google drive, Llego a mí (2023) AMZN WEB-DL 1080p Latino hd 1080p latino.
Comentarios 0