Llega de noche (2017) 1080p Latino

2.123 vistas
1 estrella2 estrellas3 estrellas4 estrellas5 estrellas (1 votos, promedio: 1,00 de 5)
Cargando…

Información de Llega de noche (2017) 1080p Latino

Datos de la película

  • Calidad: 1080p
  • Audio: Español Latino AC3 5.1 iTUNES - Ingles AC3 5.1 BLURAY
  • Subtitulos: Español Latino SRT - Ingles SRT
  • Resolución: 1920x804p
  • Formato: MKV
  • Codec: H.264
  • Encoder: DPelis1
  • Mediainfo: Clic para Mostrar Datos Ver
  • Video
    ID                                       : 1
    Format                                   : AVC
    Format/Info                              : Advanced Video Codec
    Format profile                           : [email protected]
    Format settings, CABAC                   : Yes
    Format settings, RefFrames               : 5 frames
    Codec ID                                 : V_MPEG4/ISO/AVC
    Duration                                 : 1 h 31 min
    Bit rate                                 : 3 500 kb/s
    Width                                    : 1 920 pixels
    Height                                   : 804 pixels
    Display aspect ratio                     : 2.40:1
    Frame rate mode                          : Constant
    Frame rate                               : 23.976 (24000/1001) FPS
    Color space                              : YUV
    Chroma subsampling                       : 4:2:0
    Bit depth                                : 8 bits
    Scan type                                : Progressive
    Bits/(Pixel*Frame)                       : 0.095
    Stream size                              : 2.23 GiB (81%)
    Writing library                          : x264 core 148 r2708 86b7198
    Encoding settings                        : cabac=1 / ref=5 / deblock=1:0:0 / analyse=0x3:0x113 / me=umh / subme=8 / psy=1 / psy_rd=1.00:0.00 / mixed_ref=1 / me_range=16 / chroma_me=1 / trellis=1 / 8x8dct=1 / cqm=0 / deadzone=21,11 / fast_pskip=1 / chroma_qp_offset=-2 / threads=25 / lookahead_threads=4 / sliced_threads=0 / nr=0 / decimate=1 / interlaced=0 / bluray_compat=0 / constrained_intra=0 / bframes=3 / b_pyramid=2 / b_adapt=2 / b_bias=0 / direct=3 / weightb=1 / open_gop=0 / weightp=2 / keyint=240 / keyint_min=24 / scenecut=40 / intra_refresh=0 / rc_lookahead=50 / rc=abr / mbtree=1 / bitrate=3500 / ratetol=1.0 / qcomp=0.60 / qpmin=0 / qpmax=69 / qpstep=4 / vbv_maxrate=62500 / vbv_bufsize=78125 / nal_hrd=none / filler=0 / ip_ratio=1.40 / aq=1:1.00
    Default                                  : Yes
    Forced                                   : No
    Color range                              : Limited
    Color primaries                          : BT.709
    Transfer characteristics                 : BT.709
    Matrix coefficients                      : BT.709

    Audio #1
    ID                                       : 2
    Format                                   : AC-3
    Format/Info                              : Audio Coding 3
    Format settings, Endianness              : Big
    Codec ID                                 : A_AC3
    Duration                                 : 1 h 31 min
    Bit rate mode                            : Constant
    Bit rate                                 : 448 kb/s
    Channel(s)                               : 6 channels
    Channel positions                        : Front: L C R, Side: L R, LFE
    Sampling rate                            : 48.0 kHz
    Frame rate                               : 31.250 FPS (1536 SPF)
    Bit depth                                : 16 bits
    Compression mode                         : Lossy
    Delay relative to video                  : 10 s 495 ms
    Stream size                              : 293 MiB (10%)
    Language                                 : Spanish
    Service kind                             : Complete Main
    Default                                  : Yes
    Forced                                   : No

    Audio #2
    ID                                       : 3
    Format                                   : AC-3
    Format/Info                              : Audio Coding 3
    Format settings, Endianness              : Big
    Codec ID                                 : A_AC3
    Duration                                 : 1 h 31 min
    Bit rate mode                            : Constant
    Bit rate                                 : 384 kb/s
    Channel(s)                               : 6 channels
    Channel positions                        : Front: L C R, Side: L R, LFE
    Sampling rate                            : 48.0 kHz
    Frame rate                               : 31.250 FPS (1536 SPF)
    Bit depth                                : 16 bits
    Compression mode                         : Lossy
    Delay relative to video                  : -5 ms
    Stream size                              : 252 MiB (9%)
    Language                                 : English
    Service kind                             : Complete Main
    Default                                  : No
    Forced                                   : No

    Text #1
    ID                                       : 4
    Format                                   : UTF-8
    Codec ID                                 : S_TEXT/UTF8
    Codec ID/Info                            : UTF-8 Plain Text
    Duration                                 : 10 s 100 ms
    Bit rate                                 : 87 b/s
    Count of elements                        : 1
    Stream size                              : 110 Bytes (0%)
    Default                                  : Yes
    Forced                                   : No

    Text #2
    ID                                       : 5
    Format                                   : UTF-8
    Codec ID                                 : S_TEXT/UTF8
    Codec ID/Info                            : UTF-8 Plain Text
    Duration                                 : 1 h 26 min
    Bit rate                                 : 36 b/s
    Count of elements                        : 842
    Stream size                              : 23.1 KiB (0%)
    Language                                 : Spanish
    Default                                  : No
    Forced                                   : No

    Text #3
    ID                                       : 6
    Format                                   : UTF-8
    Codec ID                                 : S_TEXT/UTF8
    Codec ID/Info                            : UTF-8 Plain Text
    Duration                                 : 1 h 30 min
    Bit rate                                 : 43 b/s
    Count of elements                        : 1095
    Stream size                              : 29.2 KiB (0%)
    Language                                 : English
    Default                                  : No
    Forced                                   : No

    Menu
    00:00:00.000                             : en:00:00:00.000
    00:08:33.179                             : en:00:08:33.096
    00:16:19.061                             : en:00:16:19.061
    00:24:26.548                             : en:00:24:26.507
    00:33:21.249                             : en:00:33:21.166
    00:40:23.755                             : en:00:40:23.713
    00:47:58.626                             : en:00:47:58.459
    00:56:14.788                             : en:00:56:14.663
    01:04:08.678                             : en:01:04:08.636
    01:11:16.606                             : en:01:11:16.606
    01:17:21.804                             : en:01:17:21.762
    01:27:52.434                             : en:01:27:52.434

  • Peso: 2,74 GB

Sinopsis

Descargar gratis Llega de noche (2017) 1080p Latino. Protgido en un hogar seguro ante un peligro sobrenatural que aterroriza al mundo, un hombre ha establecido un frágil orden doméstico con su mujer y su hijo. Pero todo se tambalea ante la llegada de una joven familia desesperada en busca de refugio.

Ficha técnica

Video trailer de la película

Enlaces de descarga

Rip de Bluray

Descargar Llega de noche (2017) 1080p Latino




Aportes de DPeliculasHDmega la pass es:dpeliculashdmega.org Aportes de CinemaniaHD la pass es:cinemaniahdd.com
Guardado en : Misterio , Suspense , Terror

Películas relacionadas

  • Hunter Killer (2018) HD 1080p Latino

    2018
    Hunter Killer (2018) HD 1080p Latino

    3.0 2h 2m 2018

    Descargar Hunter Killer (2018) HD 1080p Latino, Mega, Google Drive, Torrent. Un capitán de submarinos...

    Director: Donovan Marsh

    Género: Acción

    Actores: Zane Holtz

  • Close (2019) NF 1080p Latino

    2019
    Close (2019) NF 1080p Latino

    0.0 1h 34m 2019

    A Sam (Rapace), una experta guardaespaldas acostumbrada a territorios en guerra, le asignan un trabajo...

    Director: Vicky Jewson

    Género: Acción

    Actores: Sophie Nélisse

  • Diablero (2018) Temporada 1 NF 1080p Español Latino

    2018
    Diablero (2018) Temporada 1 NF 1080p Español Latino

    0.0 0h 38m 2018

    Diablero sigue la historia del padre Ramiro Ventura, un sacerdote que precisa de la ayuda del legendario...

    Director: Pablo Tébar

    Género: Misterio

    Actores: Horacio Garcia Rojas

  • Halloween (2018) Full 1080p Latino

    2018
    Halloween (2018) Full 1080p Latino

    4.8 2h 0m 2018

    Descargar Halloween (2018) Full 1080p Latino, Mega, Google Drive, Torrent. Jamie Lee Curtis regresa a...

    Director: David Gordon Green

    Género: FULL 1080p Plateadas

    Actores: Willie Tyrone Ferguson

Comentarios 2
  • Elver González - 08 octubre, 2017

    Gracias Exelente peli. Para cuando la versión plateada?

    • dpelis - 08 octubre, 2017

      proxima semanan