×

¿Problemas para descargar con Mozilla, EDGE? Deshabilita la opción "Abrir vinculos en una pestaña nueva" tal como lo muestra ésta imagen.

Llanto Maldito (2021) HMAX WEB-DL 1080p Latino

130 vistas

Información de Llanto Maldito (2021) HMAX WEB-DL 1080p Latino

Datos de la película

  • Calidad: 1080p
  • Audio: Español Latino AC3 2.0
  • Subtitulos: Ingles SRT
  • Resolución: 1920x1080
  • Formato: MKV
  • Codec: H.264
  • Encoder: cinemaniahdd
  • Mediainfo: Clic para Mostrar Datos Ver
  • Llanto Maldito (2021) HMAX WEB-DL 1080p Latino [CNMNHDD].mkv
    Format                      : Matroska
    Format version              : Version 4
    File size                   : 5.24 GiB
    Duration                    : 1 h 27 min
    Overall bit rate mode       : Variable
    Overall bit rate            : 8 618 kb/s
    Movie name                  : Llanto Maldito (2021) - CinemaniaHDD.Net
    Encoded date                : UTC 2021-10-31 01:07:07
    Writing application         : mkvmerge v59.0.0 ('Shining Star') 64-bit
    Writing library             : libebml v1.4.2 + libmatroska v1.6.4

    Video
    ID                          : 1
    Format                      : AVC
    Format/Info                 : Advanced Video Codec
    Format profile              : High@L4
    Format settings             : CABAC / 4 Ref Frames
    Format settings, CABAC      : Yes
    Format settings, Reference  : 4 frames
    Codec ID                    : V_MPEG4/ISO/AVC
    Duration                    : 1 h 27 min
    Bit rate mode               : Variable
    Bit rate                    : 8 250 kb/s
    Maximum bit rate            : 12.4 Mb/s
    Width                       : 1 920 pixels
    Height                      : 1 080 pixels
    Display aspect ratio        : 16:9
    Frame rate mode             : Constant
    Frame rate                  : 29.970 (30000/1001) FPS
    Color space                 : YUV
    Chroma subsampling          : 4:2:0
    Bit depth                   : 8 bits
    Scan type                   : Progressive
    Bits/(Pixel*Frame)          : 0.133
    Stream size                 : 5.01 GiB (96%)
    Title                       : CinemaniaHDD
    Writing library             : x264 core 157 r2965 861cec4
    Encoding settings           : cabac=1 / ref=4 / deblock=1:0:0 / analyse=0x3:0x113 / me=hex / subme=7 / psy=1 / psy_rd=1.00:0.00 / mixed_ref=1 / me_range=16 / chroma_me=1 / trellis=1 / 8x8dct=1 / cqm=0 / deadzone=21,11 / fast_pskip=1 / chroma_qp_offset=-2 / threads=34 / lookahead_threads=5 / sliced_threads=0 / nr=0 / decimate=1 / interlaced=0 / bluray_compat=0 / constrained_intra=0 / bframes=3 / b_pyramid=2 / b_adapt=1 / b_bias=0 / direct=1 / weightb=1 / open_gop=0 / weightp=2 / keyint=120 / keyint_min=120 / scenecut=40 / intra_refresh=0 / rc_lookahead=40 / rc=2pass / mbtree=1 / bitrate=8250 / ratetol=1.0 / qcomp=0.60 / qpmin=0 / qpmax=69 / qpstep=4 / cplxblur=20.0 / qblur=0.5 / vbv_maxrate=12375 / vbv_bufsize=6187 / nal_hrd=vbr / filler=0 / ip_ratio=1.40 / aq=1:1.00
    Default                     : Yes
    Forced                      : No
    Color range                 : Limited
    Color primaries             : BT.709
    Transfer characteristics    : BT.709
    Matrix coefficients         : BT.709

    Audio
    ID                          : 2
    Format                      : AC-3
    Format/Info                 : Audio Coding 3
    Commercial name             : Dolby Digital
    Codec ID                    : A_AC3
    Duration                    : 1 h 27 min
    Bit rate mode               : Constant
    Bit rate                    : 384 kb/s
    Channel(s)                  : 2 channels
    Channel layout              : L R
    Sampling rate               : 48.0 kHz
    Frame rate                  : 31.250 FPS (1536 SPF)
    Compression mode            : Lossy
    Stream size                 : 239 MiB (4%)
    Title                       : Español latino [CinemaniaHDD]
    Language                    : Spanish
    Service kind                : Complete Main
    Default                     : Yes
    Forced                      : No

    Text
    ID                          : 3
    Format                      : UTF-8
    Codec ID                    : S_TEXT/UTF8
    Codec ID/Info               : UTF-8 Plain Text
    Duration                    : 1 h 19 min
    Bit rate                    : 129 b/s
    Count of elements           : 808
    Stream size                 : 75.0 KiB (0%)
    Title                       : Inglés [CinemaniaHDD]
    Language                    : English
    Default                     : No
    Forced                      : No

     

  • Peso: 5.24 GiB

Sinopsis

En un último intento por salvar su matrimonio, Sara y Óscar deciden tomar unas cortas vacaciones en una cabaña en el bosque junto a sus dos hijos. Pero al llegar, no encuentran el descanso que buscaban: en vez sucesos cada vez más extraños corroen el tenso ambiente entre la pareja. La familia empieza a sentir la presencia de una mujer merodeando la casa y ella parece augurar situaciones que desafían la naturaleza. Mientras la joven pareja empieza a confrontar problemas no resueltos del pasado, estos extraños eventos intentarán descomponer a la familia desde adentro.

Ficha técnica

Video trailer de la película

Enlaces de descarga

Rip de Bluray

Descargar Llanto Maldito (2021) HMAX WEB-DL 1080p Latino




Aportes de DPeliculasHDmega la pass es:dpeliculashdmega.org Aportes de CinemaniaHD la pass es:cinemaniahdd.com
Guardado en : HBOMAX , Terror

Películas relacionadas

descargar Llanto Maldito (2021) HMAX WEB-DL 1080p Latino 1080p 1080p gratis, Llanto Maldito (2021) HMAX WEB-DL 1080p Latino 1080p mega 1 link, Llanto Maldito (2021) HMAX WEB-DL 1080p Latino 1080p pelicula completa, descargar Llanto Maldito (2021) HMAX WEB-DL 1080p Latino 1080p gratis en mega.

Llanto Maldito (2021) HMAX WEB-DL 1080p Latino pelicula full hd, Llanto Maldito (2021) HMAX WEB-DL 1080p Latino mega latino, Llanto Maldito (2021) HMAX WEB-DL 1080p Latino 4k latino, Llanto Maldito (2021) HMAX WEB-DL 1080p Latino pelicula completa, Llanto Maldito (2021) HMAX WEB-DL 1080p Latino descargar gratis, descargar Llanto Maldito (2021) HMAX WEB-DL 1080p Latino pelicula latino, Llanto Maldito (2021) HMAX WEB-DL 1080p Latino 1 link mega, Llanto Maldito (2021) HMAX WEB-DL 1080p Latino 1 link google drive, Llanto Maldito (2021) HMAX WEB-DL 1080p Latino hd 1080p latino.
Comentarios 0