×

¿Problemas para descargar con Mozilla, EDGE? Deshabilita la opción "Abrir vinculos en una pestaña nueva" tal como lo muestra ésta imagen.

Llamas de venganza (2022) REMUX 1080p Latino

217 vistas

Información de Llamas de venganza (2022) REMUX 1080p Latino

Datos de la película

  • Calidad: Full 1080p
  • Audio: Español Latino DTS 5.1 BLURAY - Ingles DTS-HD 5.1 BLURAY
  • Subtitulos: Español Latino PGS - Ingles PGS
  • Resolución: 1920x1080p
  • Formato: MKV
  • Codec: H.264
  • Encoder: Melkor
  • Mediainfo: Clic para Mostrar Datos Ver
  • Llamas De Venganza (2022) REMUX 1080p Latino.mkv
    Format                      : Matroska
    Format version              : Version 4
    File size                   : 25.9 GiB
    Duration                    : 1 h 34 min
    Overall bit rate mode       : Variable
    Overall bit rate            : 39.3 Mb/s
    Movie name                  : Firestarter (2022) CinemaniaHDD.Net
    Encoded date                : UTC 2022-06-26 23:43:17
    Writing application         : mkvmerge v56.1.0 ('My Friend') 64-bit
    Writing library             : libebml v1.4.2 + libmatroska v1.6.4
    Attachments                 : CINEMANIAHD.png

    Video
    ID                          : 1
    ID in the original source m : 4113 (0x1011)
    Format                      : AVC
    Format/Info                 : Advanced Video Codec
    Format profile              : High@L4.1
    Format settings             : CABAC / 2 Ref Frames
    Format settings, CABAC      : Yes
    Format settings, Reference  : 2 frames
    Codec ID                    : V_MPEG4/ISO/AVC
    Duration                    : 1 h 34 min
    Bit rate mode               : Variable
    Bit rate                    : 34.8 Mb/s
    Width                       : 1 920 pixels
    Height                      : 1 080 pixels
    Display aspect ratio        : 16:9
    Frame rate mode             : Constant
    Frame rate                  : 23.976 (24000/1001) FPS
    Color space                 : YUV
    Chroma subsampling          : 4:2:0
    Bit depth                   : 8 bits
    Scan type                   : Progressive
    Bits/(Pixel*Frame)          : 0.701
    Stream size                 : 23.0 GiB (89%)
    Title                       : REMUX HD1080p [CinemaniaHDD]
    Default                     : Yes
    Forced                      : Yes
    Original source medium      : Blu-ray

    Audio #1
    ID                          : 2
    ID in the original source m : 4353 (0x1101)
    Format                      : DTS
    Format/Info                 : Digital Theater Systems
    Codec ID                    : A_DTS
    Duration                    : 1 h 34 min
    Bit rate mode               : Constant
    Bit rate                    : 768 kb/s
    Channel(s)                  : 6 channels
    Channel layout              : C L R Ls Rs LFE
    Sampling rate               : 48.0 kHz
    Frame rate                  : 93.750 FPS (512 SPF)
    Bit depth                   : 24 bits
    Compression mode            : Lossy
    Stream size                 : 518 MiB (2%)
    Title                       : Español Latino [CinemaniaHDD]
    Language                    : Spanish
    Default                     : Yes
    Forced                      : Yes
    Original source medium      : Blu-ray

    Audio #2
    ID                          : 3
    ID in the original source m : 4352 (0x1100)
    Format                      : DTS XLL
    Format/Info                 : Digital Theater Systems
    Commercial name             : DTS-HD Master Audio
    Codec ID                    : A_DTS
    Duration                    : 1 h 34 min
    Bit rate mode               : Variable
    Bit rate                    : 3 605 kb/s
    Channel(s)                  : 6 channels
    Channel layout              : C L R Ls Rs LFE
    Sampling rate               : 48.0 kHz
    Frame rate                  : 93.750 FPS (512 SPF)
    Bit depth                   : 24 bits
    Compression mode            : Lossless
    Stream size                 : 2.37 GiB (9%)
    Title                       : Ingles [CinemaniaHDD]
    Language                    : English
    Default                     : No
    Forced                      : No
    Original source medium      : Blu-ray

    Text #1
    ID                          : 4
    ID in the original source m : 4611 (0x1203)
    Format                      : PGS
    Muxing mode                 : zlib
    Codec ID                    : S_HDMV/PGS
    Codec ID/Info               : Picture based subtitle format used on BDs/HD-DVDs
    Duration                    : 1 h 27 min
    Bit rate                    : 700 b/s
    Count of elements           : 40
    Stream size                 : 450 KiB (0%)
    Title                       : Forzados-PGS [CinemaniaHDD]
    Language                    : Spanish
    Default                     : No
    Forced                      : No
    Original source medium      : Blu-ray

    Text #2
    ID                          : 5
    ID in the original source m : 4609 (0x1201)
    Format                      : PGS
    Muxing mode                 : zlib
    Codec ID                    : S_HDMV/PGS
    Codec ID/Info               : Picture based subtitle format used on BDs/HD-DVDs
    Duration                    : 1 h 30 min
    Bit rate                    : 28.7 kb/s
    Count of elements           : 2144
    Stream size                 : 18.6 MiB (0%)
    Title                       : Español-PGS [CinemaniaHDD]
    Language                    : Spanish
    Default                     : No
    Forced                      : No
    Original source medium      : Blu-ray

    Text #3
    ID                          : 6
    ID in the original source m : 4608 (0x1200)
    Format                      : PGS
    Muxing mode                 : zlib
    Codec ID                    : S_HDMV/PGS
    Codec ID/Info               : Picture based subtitle format used on BDs/HD-DVDs
    Duration                    : 1 h 28 min
    Bit rate                    : 34.7 kb/s
    Count of elements           : 2326
    Stream size                 : 21.9 MiB (0%)
    Title                       : Ingles-PGS [CinemaniaHDD]
    Language                    : English
    Default                     : No
    Forced                      : No
    Original source medium      : Blu-ray

    Text #4
    ID                          : 7
    Format                      : UTF-8
    Codec ID                    : S_TEXT/UTF8
    Codec ID/Info               : UTF-8 Plain Text
    Duration                    : 1 h 11 min
    Bit rate                    : 0 b/s
    Count of elements           : 19
    Stream size                 : 486 Bytes (0%)
    Title                       : Forzados-SRT [CinemaniaHDD]
    Language                    : Spanish
    Default                     : Yes
    Forced                      : Yes

    Text #5
    ID                          : 8
    Format                      : UTF-8
    Codec ID                    : S_TEXT/UTF8
    Codec ID/Info               : UTF-8 Plain Text
    Duration                    : 1 h 22 min
    Bit rate                    : 45 b/s
    Count of elements           : 1069
    Stream size                 : 27.4 KiB (0%)
    Title                       : Español-SRT [CinemaniaHDD]
    Language                    : Spanish
    Default                     : No
    Forced                      : No

    Menu
    00:00:00.000                : Chapter 01
    00:02:55.466                : Chapter 02
    00:09:33.739                : Chapter 03
    00:13:53.249                : Chapter 04
    00:17:04.565                : Chapter 05
    00:23:46.007                : Chapter 06
    00:29:17.297                : Chapter 07
    00:35:31.963                : Chapter 08
    00:40:17.540                : Chapter 09
    00:45:21.176                : Chapter 10
    00:49:35.889                : Chapter 11
    00:56:08.656                : Chapter 12
    01:00:50.480                : Chapter 13
    01:06:27.274                : Chapter 14
    01:10:46.617                : Chapter 15
    01:13:14.765                : Chapter 16
    01:19:03.530                : Chapter 17
    01:23:04.145                : Chapter 18
    01:28:24.007                : Chapter 19
    01:30:20.498                : Chapter 20

  • Peso: 25.9 GiB

Sinopsis

Descargar Llamas de venganza (2022) REMUX 1080p Latino. Andy y Vicky son unos padres que llevan más de una década huyendo en un desesperado intento de esconder a su hija Charlie de una oscura agencia estadounidense empeñada en aprovechar su increíble don para convertir el fuego en un arma de destrucción masiva. Andy enseñó a Charlie cómo dominar su extraño poder, desencadenado normalmente por la ira o el dolor. Pero cuando Charlie cumple 11 años, el fuego es cada vez más difícil de controlar. Después de que un incidente inesperado revele la ubicación de la familia, un misterioso operario sale en busca de Charlie para hacerse con ella de una vez por todas. Pero Charlie tiene otros planes.

Ficha técnica

Video trailer de la película

Enlaces de descarga

Rip de Bluray

Descargar Llamas de venganza (2022) REMUX 1080p Latino




Aportes de DPeliculasHDmega la pass es:dpeliculashdmega.org Aportes de CinemaniaHD la pass es:cinemaniahdd.com
Guardado en : Fantasía , Remux , Suspenso , Terror

Películas relacionadas

  • Hasta la muerte (2021) HD 1080p Latino

    Hasta la muerte (2021) HD 1080p Latino

    2021
    Hasta la muerte (2021) HD 1080p Latino

    1h 28m 2021

    Descargar Hasta la muerte (2021) HD 1080p Latino. Después de una velada romántica en su apartada casa...

    Director: SK Dale

    Género: HD 1080p

    Actores: Teodora Djuric

  • Hasta la muerte (2021) PLACEBO Full HD 1080p Latino

    Hasta la muerte (2021) PLACEBO Full HD 1080p Latino

    2021
    Hasta la muerte (2021) PLACEBO Full HD 1080p Latino

    1h 28m 2021

    Descargar Hasta la muerte (2021) PLACEBO Full HD 1080p Latino. Después de una velada romántica en su...

    Director: SK Dale

    Género: FULL 1080p Plateadas

    Actores: Teodora Djuric

  • Hasta la muerte (2021) REMUX 1080p Latino

    Hasta la muerte (2021) REMUX 1080p Latino

    2021
    Hasta la muerte (2021) REMUX 1080p Latino

    1h 28m 2021

    Descargar Hasta la muerte (2021) REMUX 1080p Latino. Después de una velada romántica en su apartada...

    Director: SK Dale

    Género: Remux

    Actores: Teodora Djuric

  • Abuelos Principiantes (2020) REMUX 1080p Latino

    Abuelos Principiantes (2020) REMUX 1080p Latino

    2020
    Abuelos Principiantes (2020) REMUX 1080p Latino

    1h 44m 2020

    Descargar Abuelos Principiantes (2020) REMUX 1080p Latino. Un grupo de jubilados quiere escapar del aburrimiento...

    Director: Wolfgang Groos

    Género: Comedia

    Actores: Sabine Barth

Llamas de venganza (2022) REMUX 1080p Latino pelicula full hd, Llamas de venganza (2022) REMUX 1080p Latino mega latino, Llamas de venganza (2022) REMUX 1080p Latino 4k latino, Llamas de venganza (2022) REMUX 1080p Latino pelicula completa, Llamas de venganza (2022) REMUX 1080p Latino descargar gratis, descargar Llamas de venganza (2022) REMUX 1080p Latino pelicula latino, Llamas de venganza (2022) REMUX 1080p Latino 1 link mega, Llamas de venganza (2022) REMUX 1080p Latino 1 link google drive, Llamas de venganza (2022) REMUX 1080p Latino hd 1080p latino.
Comentarios 0