×

¿Problemas para descargar con Mozilla, EDGE? Deshabilita la opción "Abrir vinculos en una pestaña nueva" tal como lo muestra ésta imagen.

Llamadas A Espiar (2020) REMUX 1080p Latino

151 vistas

Información de Llamadas A Espiar (2020) REMUX 1080p Latino

Datos de la película

  • Calidad: Full 1080p
  • Audio: Se especifica abajo de la Sinopsis
  • Subtitulos: Español Latino SRT- FORZADOS SRT
  • Resolución: 1920x1080p
  • Formato: MKV
  • Codec: H.264
  • Encoder: Melkor
  • Mediainfo: Clic para Mostrar Datos Ver
  • Llamadas A Espiar (2020) REMUX 1080p Latino.mkv
    Format                      : Matroska
    Format version              : Version 4
    File size                   : 32.5 GiB
    Duration                    : 2 h 4 min
    Overall bit rate mode       : Variable
    Overall bit rate            : 37.4 Mb/s
    Movie name                  : A Call to Spy (2020) CinemaniaHDD.Net
    Encoded date                : UTC 2021-08-11 05:36:27
    Writing application         : mkvmerge v56.1.0 ('My Friend') 64-bit
    Writing library             : libebml v1.4.2 + libmatroska v1.6.4
    Attachments                 : CINEMANIAHD.png

    Video
    ID                          : 1
    Format                      : AVC
    Format/Info                 : Advanced Video Codec
    Format profile              : High@L4.1
    Format settings             : CABAC / 4 Ref Frames
    Format settings, CABAC      : Yes
    Format settings, Reference  : 4 frames
    Codec ID                    : V_MPEG4/ISO/AVC
    Duration                    : 2 h 4 min
    Bit rate mode               : Constant
    Bit rate                    : 33.1 Mb/s
    Nominal bit rate            : 35.0 Mb/s
    Width                       : 1 920 pixels
    Height                      : 1 080 pixels
    Display aspect ratio        : 16:9
    Frame rate mode             : Constant
    Frame rate                  : 23.976 (24000/1001) FPS
    Color space                 : YUV
    Chroma subsampling          : 4:2:0
    Bit depth                   : 8 bits
    Scan type                   : Progressive
    Bits/(Pixel*Frame)          : 0.665
    Stream size                 : 28.7 GiB (88%)
    Title                       : REMUX 1080p [CinemaniaHDD]
    Language                    : English
    Default                     : Yes
    Forced                      : No

    Audio #1
    ID                          : 2
    Format                      : AC-3
    Format/Info                 : Audio Coding 3
    Commercial name             : Dolby Digital
    Codec ID                    : A_AC3
    Duration                    : 2 h 4 min
    Bit rate mode               : Constant
    Bit rate                    : 640 kb/s
    Channel(s)                  : 6 channels
    Channel layout              : L R C LFE Ls Rs
    Sampling rate               : 48.0 kHz
    Frame rate                  : 31.250 FPS (1536 SPF)
    Compression mode            : Lossy
    Stream size                 : 569 MiB (2%)
    Title                       : Español Latino AC3 [CinemaniaHDD]
    Language                    : Spanish
    Service kind                : Complete Main
    Default                     : Yes
    Forced                      : Yes

    Audio #2
    ID                          : 3
    Format                      : DTS XLL
    Format/Info                 : Digital Theater Systems
    Commercial name             : DTS-HD Master Audio
    Codec ID                    : A_DTS
    Duration                    : 2 h 4 min
    Bit rate mode               : Variable
    Bit rate                    : 3 039 kb/s
    Channel(s)                  : 6 channels
    Channel layout              : C L R Ls Rs LFE
    Sampling rate               : 48.0 kHz
    Frame rate                  : 93.750 FPS (512 SPF)
    Bit depth                   : 24 bits
    Compression mode            : Lossless
    Stream size                 : 2.64 GiB (8%)
    Title                       : Ingles [CinemaniaHDD]
    Language                    : English
    Default                     : No
    Forced                      : No

    Audio #3
    ID                          : 4
    Format                      : E-AC-3
    Format/Info                 : Enhanced AC-3
    Commercial name             : Dolby Digital Plus
    Codec ID                    : A_EAC3
    Duration                    : 2 h 4 min
    Bit rate mode               : Constant
    Bit rate                    : 640 kb/s
    Channel(s)                  : 6 channels
    Channel layout              : L R C LFE Ls Rs
    Sampling rate               : 48.0 kHz
    Frame rate                  : 31.250 FPS (1536 SPF)
    Compression mode            : Lossy
    Delay relative to video     : 9 ms
    Stream size                 : 569 MiB (2%)
    Title                       : Español Latino EAC3 [CinemaniaHDD]
    Language                    : Spanish
    Service kind                : Complete Main
    Default                     : Yes
    Forced                      : No

    Text #1
    ID                          : 5
    Format                      : UTF-8
    Codec ID                    : S_TEXT/UTF8
    Codec ID/Info               : UTF-8 Plain Text
    Duration                    : 1 h 48 min
    Bit rate                    : 0 b/s
    Count of elements           : 24
    Stream size                 : 694 Bytes (0%)
    Title                       : Forzados-SRT [CinemaniaHDD]
    Language                    : Spanish
    Default                     : Yes
    Forced                      : Yes

    Text #2
    ID                          : 6
    Format                      : UTF-8
    Codec ID                    : S_TEXT/UTF8
    Codec ID/Info               : UTF-8 Plain Text
    Duration                    : 2 h 3 min
    Bit rate                    : 48 b/s
    Count of elements           : 1377
    Stream size                 : 44.2 KiB (0%)
    Title                       : Español-SRT [CinemaniaHDD]
    Language                    : Spanish
    Default                     : No
    Forced                      : No

    Text #3
    ID                          : 7
    Format                      : UTF-8
    Codec ID                    : S_TEXT/UTF8
    Codec ID/Info               : UTF-8 Plain Text
    Duration                    : 1 h 56 min
    Bit rate                    : 40 b/s
    Count of elements           : 1311
    Stream size                 : 34.8 KiB (0%)
    Title                       : Ingles-SRT [CinemaniaHDD]
    Language                    : English
    Default                     : No
    Forced                      : No

    Menu
    00:00:00.000                : Chapter 01
    00:09:57.013                : Chapter 02
    00:20:29.145                : Chapter 03
    00:31:00.108                : Chapter 04
    00:40:00.440                : Chapter 05
    00:49:35.723                : Chapter 06
    01:01:28.143                : Chapter 07
    01:11:03.384                : Chapter 08
    01:19:59.920                : Chapter 09
    01:32:02.434                : Chapter 10
    01:40:38.532                : Chapter 11
    01:51:33.604                : Chapter 12

  • Peso: 32.5 GiB

Sinopsis

Descargar Llamadas A Espiar (2020) REMUX 1080p Latino. La historia de Vera Atkins, una hábil reclutadora de espías, y dos de las primeras mujeres que selecciona para el «ejército secreto» de Churchill: Virginia Hall, una estadounidense atrevida que no se deja intimidar por una discapacidad y Noor Inayat Khan, una pacifista. Estas mujeres civiles forman una hermandad poco probable mientras se enredan en peligrosas misiones para cambiar el rumbo de la guerra.

Español Latino EAC3 & AC3 5.1 NF – Ingles DTS-HD 5.1 BD

Ficha técnica

Video trailer de la película

Enlaces de descarga

Rip de Bluray

Descargar Llamadas A Espiar (2020) REMUX 1080p Latino




Aportes de DPeliculasHDmega la pass es:dpeliculashdmega.org Aportes de CinemaniaHD la pass es:cinemaniahdd.com
Guardado en : Bélica , Drama , Remux , Suspenso

Películas relacionadas

descargar Llamadas A Espiar (2020) REMUX 1080p Latino Full 1080p 1080p gratis, Llamadas A Espiar (2020) REMUX 1080p Latino Full 1080p mega 1 link, Llamadas A Espiar (2020) REMUX 1080p Latino Full 1080p pelicula completa, descargar Llamadas A Espiar (2020) REMUX 1080p Latino Full 1080p gratis en mega.

Llamadas A Espiar (2020) REMUX 1080p Latino pelicula full hd, Llamadas A Espiar (2020) REMUX 1080p Latino mega latino, Llamadas A Espiar (2020) REMUX 1080p Latino 4k latino, Llamadas A Espiar (2020) REMUX 1080p Latino pelicula completa, Llamadas A Espiar (2020) REMUX 1080p Latino descargar gratis, descargar Llamadas A Espiar (2020) REMUX 1080p Latino pelicula latino, Llamadas A Espiar (2020) REMUX 1080p Latino 1 link mega, Llamadas A Espiar (2020) REMUX 1080p Latino 1 link google drive, Llamadas A Espiar (2020) REMUX 1080p Latino hd 1080p latino.
Comentarios 0