×

¿Problemas para descargar con Mozilla, EDGE? Deshabilita la opción "Abrir vinculos en una pestaña nueva" tal como lo muestra ésta imagen.

James Bond 08: Vive y deja Morir (1973) REMUX 1080p Latino

701 vistas

Información de James Bond 08: Vive y deja Morir (1973) REMUX 1080p Latino

Datos de la película

  • Calidad: Full 1080p
  • Audio: Español Latino AC3 5.1 BLURAY - Ingles DTS 5.1 BLURAY
  • Subtitulos: Español Latino PGS - Ingles PGS
  • Resolución: 1920x1080p
  • Formato: MKV
  • Codec: H.264
  • Encoder: CinefiloCool
  • Mediainfo: Clic para Mostrar Datos Ver
  • Vive Y Deja Morir (1973) REMUX 1080p Latino-CMHDD.mkv
    Format                      : Matroska
    Format version              : Version 4
    File size                   : 28.2 GiB
    Duration                    : 2 h 1 min
    Overall bit rate mode       : Variable
    Overall bit rate            : 33.2 Mb/s
    Movie name                  : Live and Let Die (1973) CinemaniaHDD.Net
    Encoded date                : UTC 2020-06-02 06:06:53
    Writing application         : mkvmerge v46.0.0 ('No Deeper Escape') 64-bit
    Writing library             : libebml v1.3.10 + libmatroska v1.5.2
    Attachments                 : CINEMANIAHD.png

    Video
    ID                          : 1
    Format                      : AVC
    Format/Info                 : Advanced Video Codec
    Format profile              : High@L4.1
    Format settings             : CABAC / 4 Ref Frames
    Format settings, CABAC      : Yes
    Format settings, Reference  : 4 frames
    Codec ID                    : V_MPEG4/ISO/AVC
    Duration                    : 2 h 1 min
    Bit rate mode               : Variable
    Bit rate                    : 29.1 Mb/s
    Maximum bit rate            : 35.6 Mb/s
    Width                       : 1 920 pixels
    Height                      : 1 080 pixels
    Display aspect ratio        : 16:9
    Frame rate mode             : Constant
    Frame rate                  : 23.976 (24000/1001) FPS
    Color space                 : YUV
    Chroma subsampling          : 4:2:0
    Bit depth                   : 8 bits
    Scan type                   : Progressive
    Bits/(Pixel*Frame)          : 0.586
    Stream size                 : 24.8 GiB (88%)
    Title                       : REMUX 1080p [CinemaniaHDD]
    Language                    : English
    Default                     : Yes
    Forced                      : No
    Color range                 : Limited
    Color primaries             : BT.709
    Transfer characteristics    : BT.709
    Matrix coefficients         : BT.709

    Audio #1
    ID                          : 2
    Format                      : AC-3
    Format/Info                 : Audio Coding 3
    Commercial name             : Dolby Digital
    Codec ID                    : A_AC3
    Duration                    : 2 h 1 min
    Bit rate mode               : Constant
    Bit rate                    : 448 kb/s
    Channel(s)                  : 6 channels
    Channel layout              : L R C LFE Ls Rs
    Sampling rate               : 48.0 kHz
    Frame rate                  : 31.250 FPS (1536 SPF)
    Compression mode            : Lossy
    Stream size                 : 390 MiB (1%)
    Title                       : Español Latino [CinemaniaHDD]
    Language                    : Spanish
    Service kind                : Complete Main
    Default                     : Yes
    Forced                      : No

    Audio #2
    ID                          : 3
    Format                      : DTS XLL
    Format/Info                 : Digital Theater Systems
    Commercial name             : DTS-HD Master Audio
    Codec ID                    : A_DTS
    Duration                    : 2 h 1 min
    Bit rate mode               : Variable
    Bit rate                    : 3 631 kb/s
    Channel(s)                  : 6 channels
    Channel layout              : C L R Ls Rs LFE
    Sampling rate               : 48.0 kHz
    Frame rate                  : 93.750 FPS (512 SPF)
    Bit depth                   : 24 bits
    Compression mode            : Lossless
    Stream size                 : 3.09 GiB (11%)
    Title                       : Ingles [CinemaniaHDD]
    Language                    : English
    Default                     : No
    Forced                      : No

    Text #1
    ID                          : 4
    Format                      : PGS
    Muxing mode                 : zlib
    Codec ID                    : S_HDMV/PGS
    Codec ID/Info               : Picture based subtitle format used on BDs/HD-DVDs
    Duration                    : 2 h 0 min
    Bit rate                    : 20.3 kb/s
    Count of elements           : 1758
    Stream size                 : 17.5 MiB (0%)
    Title                       : Español-PGS [CinemaniaHDD]
    Language                    : Spanish
    Default                     : No
    Forced                      : No

    Text #2
    ID                          : 5
    Format                      : PGS
    Muxing mode                 : zlib
    Codec ID                    : S_HDMV/PGS
    Codec ID/Info               : Picture based subtitle format used on BDs/HD-DVDs
    Duration                    : 1 h 58 min
    Bit rate                    : 22.8 kb/s
    Count of elements           : 1600
    Stream size                 : 19.4 MiB (0%)
    Title                       : Ingles-PGS [CinemaniaHDD]
    Language                    : English
    Default                     : No
    Forced                      : No

    Text #3
    ID                          : 6
    Format                      : UTF-8
    Codec ID                    : S_TEXT/UTF8
    Codec ID/Info               : UTF-8 Plain Text
    Duration                    : 1 h 39 min
    Bit rate                    : 0 b/s
    Count of elements           : 23
    Stream size                 : 489 Bytes (0%)
    Title                       : Forzados-SRT [CinemaniaHDD]
    Language                    : Spanish
    Default                     : Yes
    Forced                      : No

    Text #4
    ID                          : 7
    Format                      : UTF-8
    Codec ID                    : S_TEXT/UTF8
    Codec ID/Info               : UTF-8 Plain Text
    Duration                    : 1 h 59 min
    Bit rate                    : 33 b/s
    Count of elements           : 699
    Stream size                 : 29.2 KiB (0%)
    Title                       : Español-SRT [CinemaniaHDD]
    Language                    : Spanish
    Default                     : No
    Forced                      : No

    Menu
    00:00:00.000                : en:Chapter 1
    00:04:56.129                : en:Chapter 2
    00:07:37.874                : en:Chapter 3
    00:12:31.167                : en:Chapter 4
    00:17:57.409                : en:Chapter 5
    00:22:36.396                : en:Chapter 6
    00:26:31.381                : en:Chapter 7
    00:28:49.853                : en:Chapter 8
    00:30:33.581                : en:Chapter 9
    00:34:46.125                : en:Chapter 10
    00:38:19.297                : en:Chapter 11
    00:41:54.887                : en:Chapter 12
    00:46:54.061                : en:Chapter 13
    00:51:06.938                : en:Chapter 14
    00:54:51.496                : en:Chapter 15
    00:57:18.726                : en:Chapter 16
    01:03:02.278                : en:Chapter 17
    01:04:58.811                : en:Chapter 18
    01:07:06.397                : en:Chapter 19
    01:10:47.701                : en:Chapter 20
    01:14:53.614                : en:Chapter 21
    01:19:29.222                : en:Chapter 22
    01:26:17.714                : en:Chapter 23
    01:31:55.510                : en:Chapter 24
    01:35:48.826                : en:Chapter 25
    01:40:27.521                : en:Chapter 26
    01:44:50.284                : en:Chapter 27
    01:47:40.745                : en:Chapter 28
    01:49:41.032                : en:Chapter 29
    01:55:33.927                : en:Chapter 30
    01:56:30.817                : en:Chapter 31
    02:00:05.990                : en:Chapter 32

  • Peso: 28.2 GiB

Sinopsis

Descargar James Bond: Vive y deja Morir (1973) REMUX 1080p Latino. En tan sólo veinticuatro horas, tres agentes del servicio secreto británico que investigaban una red de tráfico de drogas aparecen asesinados en extrañas circunstancias. Todas las pistas conducen a Mister Big y a un diplomático llamado Katanga. El agente 007, James Bond, es enviado a Nueva York para investigar al enigmático personaje.

RESUBIDA!!!

Ficha técnica

Video trailer de la película

Enlaces de descarga

Rip de Bluray

Descargar James Bond 08: Vive y deja Morir (1973) REMUX 1080p Latino


Aportes de DPeliculasHDmega la pass es:dpeliculashdmega.org Aportes de CinemaniaHD la pass es:cinemaniahdd.com Aportes recientes:cinemaniahdd.net
Guardado en : Acción , Aventura , Remux , Suspenso
Etiquetado en :

Películas relacionadas

  • Red de venganza (2023) HD 1080p Latino

    Red de venganza (2023) HD 1080p Latino

    2023
    Red de venganza (2023) HD 1080p Latino

    1h 25m 2023

    Descargar Red de venganza (2023) HD 1080p Latino. Analiza los problemas que surgen entre una madre (Summer...

    Director: Amy Redford

    Género: Drama

    Actores: Summer Phoenix

  • Red de venganza (2023) REMUX 1080p Latino

    Red de venganza (2023) REMUX 1080p Latino

    2023
    Red de venganza (2023) REMUX 1080p Latino

    1h 25m 2023

    Descargar Red de venganza (2023) REMUX 1080p Latino. Analiza los problemas que surgen entre una madre...

    Director: Amy Redford

    Género: Drama

    Actores: Summer Phoenix

  • Recuerdos Mortales (2024) WEB-DL 1080p Latino

    Recuerdos Mortales (2024) WEB-DL 1080p Latino

    2024
    Recuerdos Mortales (2024) WEB-DL 1080p Latino

    1h 52m 2024

    Descargar Recuerdos Mortales (2024) WEB-DL 1080p Latino. Después de someterse a un tratamiento de vanguardia...

    Director: Adam Cooper

    Género: Crimen

    Actores: Tommy Flanagan

  • Nahir (2024) AMZN WEB-DL 1080p Latino

    Nahir (2024) AMZN WEB-DL 1080p Latino

    2024
    Nahir (2024) AMZN WEB-DL 1080p Latino

    2h 2m 2024

    Descargar Nahir (2024) AMZN WEB-DL 1080p Latino. En 2018, Nahir Galarza, de 19 años, fue condenada a...

    Director: Nicolas Giussani

    Género: Crimen

    Actores: Valentina Zenere

descargar James Bond 08: Vive y deja Morir (1973) REMUX 1080p Latino Full 1080p 1080p gratis, James Bond 08: Vive y deja Morir (1973) REMUX 1080p Latino Full 1080p mega 1 link, James Bond 08: Vive y deja Morir (1973) REMUX 1080p Latino Full 1080p pelicula completa, descargar James Bond 08: Vive y deja Morir (1973) REMUX 1080p Latino Full 1080p gratis en mega.

James Bond 08: Vive y deja Morir (1973) REMUX 1080p Latino pelicula full hd, James Bond 08: Vive y deja Morir (1973) REMUX 1080p Latino mega latino, James Bond 08: Vive y deja Morir (1973) REMUX 1080p Latino 4k latino, James Bond 08: Vive y deja Morir (1973) REMUX 1080p Latino pelicula completa, James Bond 08: Vive y deja Morir (1973) REMUX 1080p Latino descargar gratis, descargar James Bond 08: Vive y deja Morir (1973) REMUX 1080p Latino pelicula latino, James Bond 08: Vive y deja Morir (1973) REMUX 1080p Latino 1 link mega, James Bond 08: Vive y deja Morir (1973) REMUX 1080p Latino 1 link google drive, James Bond 08: Vive y deja Morir (1973) REMUX 1080p Latino hd 1080p latino.
Comentarios 0