×

¿Problemas para descargar con Mozilla, EDGE? Deshabilita la opción "Abrir vinculos en una pestaña nueva" tal como lo muestra ésta imagen.

James Bond: Vive y deja Morir (1973) 1080p Latino

374 vistas

Información de James Bond: Vive y deja Morir (1973) 1080p Latino

Datos de la película

  • Calidad: 1080p
  • Audio: Español Latino AC3 5.1 BLURAY - Ingles AC3 5.1 BLURAY
  • Subtitulos: Español Latino SRT - Ingles SRT
  • Resolución: 1920x1038p
  • Formato: MKV
  • Codec: H.264
  • Encoder: CinefiloCool
  • Mediainfo: Clic para Mostrar Datos Ver
  • Vive Y Deja Morir (1973) 1080p Latino-CMHDD.mkv
    Format                      : Matroska
    Format version              : Version 4
    File size                   : 4.41 GiB
    Duration                    : 2 h 1 min
    Overall bit rate mode       : Variable
    Overall bit rate            : 5 186 kb/s
    Movie name                  : Live and Let Die (1973) CinemaniaHDD.Net
    Encoded date                : UTC 2020-06-02 06:13:04
    Writing application         : mkvmerge v46.0.0 ('No Deeper Escape') 64-bit
    Writing library             : libebml v1.3.10 + libmatroska v1.5.2
    Attachments                 : CINEMANIAHD.png

    Video
    ID                          : 1
    Format                      : AVC
    Format/Info                 : Advanced Video Codec
    Format profile              : High@L4
    Format settings             : CABAC / 3 Ref Frames
    Format settings, CABAC      : Yes
    Format settings, Reference  : 3 frames
    Codec ID                    : V_MPEG4/ISO/AVC
    Duration                    : 2 h 1 min
    Bit rate mode               : Variable
    Bit rate                    : 4 096 kb/s
    Width                       : 1 920 pixels
    Height                      : 1 038 pixels
    Display aspect ratio        : 1.85:1
    Frame rate mode             : Constant
    Frame rate                  : 23.976 (24000/1001) FPS
    Color space                 : YUV
    Chroma subsampling          : 4:2:0
    Bit depth                   : 8 bits
    Scan type                   : Progressive
    Bits/(Pixel*Frame)          : 0.086
    Stream size                 : 3.48 GiB (79%)
    Title                       : HD1080p [CinemaniaHDD]
    Writing library             : x264 core 142 r2479 dd79a61
    Encoding settings           : cabac=1 / ref=3 / deblock=1:0:0 / analyse=0x3:0x113 / me=hex / subme=7 / psy=1 / psy_rd=1.00:0.00 / mixed_ref=1 / me_range=16 / chroma_me=1 / trellis=1 / 8x8dct=1 / cqm=0 / deadzone=21,11 / fast_pskip=1 / chroma_qp_offset=-2 / threads=6 / lookahead_threads=1 / sliced_threads=0 / nr=0 / decimate=1 / interlaced=0 / bluray_compat=0 / constrained_intra=0 / bframes=3 / b_pyramid=0 / b_adapt=1 / b_bias=0 / direct=1 / weightb=1 / open_gop=0 / weightp=2 / keyint=240 / keyint_min=24 / scenecut=40 / intra_refresh=0 / rc_lookahead=40 / rc=2pass / mbtree=1 / bitrate=4096 / ratetol=1.0 / qcomp=0.60 / qpmin=0 / qpmax=69 / qpstep=4 / cplxblur=20.0 / qblur=0.5 / vbv_maxrate=25000 / vbv_bufsize=25000 / nal_hrd=vbr / filler=0 / ip_ratio=1.40 / aq=1:1.00
    Default                     : Yes
    Forced                      : No

    Audio #1
    ID                          : 2
    Format                      : AC-3
    Format/Info                 : Audio Coding 3
    Commercial name             : Dolby Digital
    Codec ID                    : A_AC3
    Duration                    : 2 h 1 min
    Bit rate mode               : Constant
    Bit rate                    : 448 kb/s
    Channel(s)                  : 6 channels
    Channel layout              : L R C LFE Ls Rs
    Sampling rate               : 48.0 kHz
    Frame rate                  : 31.250 FPS (1536 SPF)
    Compression mode            : Lossy
    Stream size                 : 390 MiB (9%)
    Title                       : Español Latino [CinemaniaHDD]
    Language                    : Spanish
    Service kind                : Complete Main
    Default                     : Yes
    Forced                      : No

    Audio #2
    ID                          : 3
    Format                      : AC-3
    Format/Info                 : Audio Coding 3
    Commercial name             : Dolby Digital
    Codec ID                    : A_AC3
    Duration                    : 2 h 1 min
    Bit rate mode               : Constant
    Bit rate                    : 640 kb/s
    Channel(s)                  : 6 channels
    Channel layout              : L R C LFE Ls Rs
    Sampling rate               : 48.0 kHz
    Frame rate                  : 31.250 FPS (1536 SPF)
    Compression mode            : Lossy
    Stream size                 : 557 MiB (12%)
    Title                       : Ingles [CinemaniaHDD]
    Language                    : English
    Service kind                : Complete Main
    Default                     : No
    Forced                      : No

    Text #1
    ID                          : 4
    Format                      : UTF-8
    Codec ID                    : S_TEXT/UTF8
    Codec ID/Info               : UTF-8 Plain Text
    Duration                    : 1 h 39 min
    Bit rate                    : 0 b/s
    Count of elements           : 23
    Stream size                 : 489 Bytes (0%)
    Title                       : Forzados-SRT [CinemaniaHDD]
    Language                    : Spanish
    Default                     : Yes
    Forced                      : No

    Text #2
    ID                          : 5
    Format                      : UTF-8
    Codec ID                    : S_TEXT/UTF8
    Codec ID/Info               : UTF-8 Plain Text
    Duration                    : 1 h 59 min
    Bit rate                    : 33 b/s
    Count of elements           : 699
    Stream size                 : 29.2 KiB (0%)
    Title                       : Español-SRT [CinemaniaHDD]
    Language                    : Spanish
    Default                     : No
    Forced                      : No

    Text #3
    ID                          : 6
    Format                      : UTF-8
    Codec ID                    : S_TEXT/UTF8
    Codec ID/Info               : UTF-8 Plain Text
    Duration                    : 1 h 59 min
    Bit rate                    : 36 b/s
    Count of elements           : 888
    Stream size                 : 32.2 KiB (0%)
    Title                       : Ingles-SRT [CinemaniaHDD]
    Language                    : English
    Default                     : No
    Forced                      : No

    Menu
    00:00:00.000                : :Chapter 1
    00:04:56.129                : :Chapter 2
    00:07:37.874                : :Chapter 3
    00:12:31.167                : :Chapter 4
    00:17:57.410                : :Chapter 5
    00:22:36.397                : :Chapter 6
    00:26:31.381                : :Chapter 7
    00:28:49.853                : :Chapter 8
    00:30:33.582                : :Chapter 9
    00:34:46.126                : :Chapter 10
    00:38:19.297                : :Chapter 11
    00:41:54.887                : :Chapter 12
    00:46:54.061                : :Chapter 13
    00:51:06.939                : :Chapter 14
    00:54:51.497                : :Chapter 15
    00:57:18.727                : :Chapter 16
    01:03:02.279                : :Chapter 17
    01:04:58.812                : :Chapter 18
    01:07:06.397                : :Chapter 19
    01:10:47.702                : :Chapter 20
    01:14:53.614                : :Chapter 21
    01:19:29.223                : :Chapter 22
    01:26:17.714                : :Chapter 23
    01:31:55.510                : :Chapter 24
    01:35:48.826                : :Chapter 25
    01:40:27.522                : :Chapter 26
    01:44:50.284                : :Chapter 27
    01:47:40.746                : :Chapter 28
    01:49:41.033                : :Chapter 29
    01:55:33.927                : :Chapter 30
    01:56:30.817                : :Chapter 31
    02:00:05.990                : :Chapter 32

  • Peso: 4.41 GiB

Sinopsis

Descargar James Bond: Vive y deja Morir (1973) 1080p Latino. En tan sólo veinticuatro horas, tres agentes del servicio secreto británico que investigaban una red de tráfico de drogas aparecen asesinados en extrañas circunstancias. Todas las pistas conducen a Mister Big y a un diplomático llamado Katanga. El agente 007, James Bond, es enviado a Nueva York para investigar al enigmático personaje.

Ficha técnica

Video trailer de la película

Enlaces de descarga

Rip de Bluray

Descargar James Bond: Vive y deja Morir (1973) 1080p Latino




Aportes de DPeliculasHDmega la pass es:dpeliculashdmega.org Aportes de CinemaniaHD la pass es:cinemaniahdd.com
Guardado en : Acción , Aventura , HD 1080p , Suspenso

Películas relacionadas

descargar James Bond: Vive y deja Morir (1973) 1080p Latino 1080p 1080p gratis, James Bond: Vive y deja Morir (1973) 1080p Latino 1080p mega 1 link, James Bond: Vive y deja Morir (1973) 1080p Latino 1080p pelicula completa, descargar James Bond: Vive y deja Morir (1973) 1080p Latino 1080p gratis en mega.

James Bond: Vive y deja Morir (1973) 1080p Latino pelicula full hd, James Bond: Vive y deja Morir (1973) 1080p Latino mega latino, James Bond: Vive y deja Morir (1973) 1080p Latino 4k latino, James Bond: Vive y deja Morir (1973) 1080p Latino pelicula completa, James Bond: Vive y deja Morir (1973) 1080p Latino descargar gratis, descargar James Bond: Vive y deja Morir (1973) 1080p Latino pelicula latino, James Bond: Vive y deja Morir (1973) 1080p Latino 1 link mega, James Bond: Vive y deja Morir (1973) 1080p Latino 1 link google drive, James Bond: Vive y deja Morir (1973) 1080p Latino hd 1080p latino.
Comentarios 0