×

¿Problemas para descargar con Mozilla, EDGE? Deshabilita la opción "Abrir vinculos en una pestaña nueva" tal como lo muestra ésta imagen.

Mujercitas (2019) AMZN Web-DL 1080p Latino

1.188 vistas

Información de Mujercitas (2019) AMZN Web-DL 1080p Latino

Datos de la película

  • Calidad: WEBDL
  • Audio: Se especifica abajo de la Sinopsis
  • Subtitulos: Español Latino SRT - Ingles SRT
  • Resolución: 1920x1040p
  • Formato: MKV
  • Codec: H.264
  • Encoder: CinefiloCool
  • Mediainfo: Clic para Mostrar Datos Ver
  • Mujercitas (2019) AMZN Web-DL 1080p Latino-CMHDD.mkv
    Format                      : Matroska
    Format version              : Version 4
    File size                   : 9.25 GiB
    Duration                    : 2 h 14 min
    Overall bit rate            : 9 817 kb/s
    Movie name                  : Little Women (2019) CinemaniaHDD.Net
    Encoded date                : UTC 2020-03-11 00:15:49
    Writing application         : mkvmerge v42.0.0 ('Overtime') 64-bit
    Writing library             : libebml v1.3.10 + libmatroska v1.5.2
    Attachments                 : CINEMANIAHD.png

    Video
    ID                          : 1
    Format                      : AVC
    Format/Info                 : Advanced Video Codec
    Format profile              : High@L4
    Format settings             : CABAC / 4 Ref Frames
    Format settings, CABAC      : Yes
    Format settings, ReFrames   : 4 frames
    Codec ID                    : V_MPEG4/ISO/AVC
    Duration                    : 2 h 14 min
    Bit rate mode               : Constant
    Bit rate                    : 8 919 kb/s
    Nominal bit rate            : 10 000 kb/s
    Width                       : 1 920 pixels
    Height                      : 1 040 pixels
    Display aspect ratio        : 1.85:1
    Frame rate mode             : Constant
    Frame rate                  : 23.976 (24000/1001) FPS
    Color space                 : YUV
    Chroma subsampling          : 4:2:0
    Bit depth                   : 8 bits
    Scan type                   : Progressive
    Bits/(Pixel*Frame)          : 0.186
    Stream size                 : 8.40 GiB (91%)
    Title                       : HD1080p [Web]
    Default                     : Yes
    Forced                      : Yes
    Color range                 : Limited
    Color primaries             : BT.709
    Transfer characteristics    : BT.709
    Matrix coefficients         : BT.709

    Audio #1
    ID                          : 2
    Format                      : AC-3
    Format/Info                 : Audio Coding 3
    Commercial name             : Dolby Digital
    Codec ID                    : A_AC3
    Duration                    : 2 h 14 min
    Bit rate mode               : Constant
    Bit rate                    : 256 kb/s
    Channel(s)                  : 2 channels
    Channel layout              : L R
    Sampling rate               : 48.0 kHz
    Frame rate                  : 31.250 FPS (1536 SPF)
    Bit depth                   : 16 bits
    Compression mode            : Lossy
    Stream size                 : 247 MiB (3%)
    Title                       : AC3_2.0_Web_Esp
    Language                    : Spanish
    Service kind                : Complete Main
    Default                     : Yes
    Forced                      : Yes

    Audio #2
    ID                          : 3
    Format                      : E-AC-3
    Format/Info                 : Enhanced AC-3
    Commercial name             : Dolby Digital Plus
    Codec ID                    : A_EAC3
    Duration                    : 2 h 14 min
    Bit rate mode               : Constant
    Bit rate                    : 640 kb/s
    Channel(s)                  : 6 channels
    Channel layout              : L R C LFE Ls Rs
    Sampling rate               : 48.0 kHz
    Frame rate                  : 31.250 FPS (1536 SPF)
    Compression mode            : Lossy
    Stream size                 : 617 MiB (7%)
    Title                       : DDP_5.1_Web_Eng
    Language                    : English
    Service kind                : Complete Main
    Default                     : No
    Forced                      : No

    Text #1
    ID                          : 4
    Format                      : UTF-8
    Codec ID                    : S_TEXT/UTF8
    Codec ID/Info               : UTF-8 Plain Text
    Duration                    : 2 h 13 min
    Bit rate                    : 0 b/s
    Count of elements           : 3
    Stream size                 : 142 Bytes (0%)
    Title                       : Sub_Forzados
    Language                    : Spanish
    Default                     : Yes
    Forced                      : Yes

    Text #2
    ID                          : 5
    Format                      : UTF-8
    Codec ID                    : S_TEXT/UTF8
    Codec ID/Info               : UTF-8 Plain Text
    Duration                    : 2 h 13 min
    Bit rate                    : 59 b/s
    Count of elements           : 1692
    Stream size                 : 58.1 KiB (0%)
    Title                       : Sub_Esp
    Language                    : Spanish
    Default                     : No
    Forced                      : No

    Text #3
    ID                          : 6
    Format                      : UTF-8
    Codec ID                    : S_TEXT/UTF8
    Codec ID/Info               : UTF-8 Plain Text
    Duration                    : 2 h 5 min
    Bit rate                    : 66 b/s
    Count of elements           : 1911
    Stream size                 : 60.9 KiB (0%)
    Title                       : Sub_Eng
    Language                    : English
    Default                     : No
    Forced                      : No

    Menu
    00:00:00.000                : en:Studio Logos
    00:00:57.000                : en:Quote
    00:01:05.000                : en:Jo pitches a story
    00:04:41.000                : en:Title Sequence
    00:04:44.000                : en:Distracted writing
    00:06:02.000                : en:Amy runs into an old friend
    00:08:38.000                : en:Meg buys some fabric
    00:09:40.000                : en:Beth plays the piano
    00:10:09.000                : en:A night on the town
    00:17:58.000                : en:A gift from Friedrich
    00:19:17.000                : en:Laurie embarasses Amy
    00:21:27.000                : en:Friedrich critiques Jo's writing
    00:24:37.000                : en:Christmas morning
    00:33:32.000                : en:Friedrich inquires about Jo
    00:33:51.000                : en:Making your way in the world
    00:37:01.000                : en:Amy acts out at school
    00:40:42.000                : en:Letting Laurie into the group
    00:43:23.000                : en:Jo returns home
    00:44:39.000                : en:Amy takes revenge against Jo
    00:53:21.000                : en:Attending a debutante ball
    01:01:22.000                : en:Meg wants nice things
    01:03:13.000                : en:Amy wants more from the world
    01:07:27.000                : en:A day at the beach
    01:10:05.000                : en:Supporting war efforts
    01:13:34.000                : en:Laurie confesses to Amy
    01:16:24.000                : en:A gift for Beth
    01:22:02.000                : en:Amy is their last hope
    01:24:28.000                : en:Fighting off sickness
    01:31:19.000                : en:Not everyone is suited for marriage
    01:39:53.000                : en:The sting of loneliness
    01:43:02.000                : en:Husband and wife
    01:49:37.000                : en:A life without Beth
    01:50:45.000                : en:A story for Beth
    01:54:21.000                : en:A gift from Aunt March
    01:56:03.000                : en:An unexpected visitor
    02:01:37.000                : en:A story with fans
    02:02:09.000                : en:A change in the ending
    02:06:21.000                : en:A celebration of a life well lived
    02:09:48.000                : en:End Credits

  • Peso: 9.25 GiB

Sinopsis

Descargar Mujercitas (2019) AMZN Web-DL 1080p Latino. Amy, Jo, Beth y Meg son cuatro hermanas adolescentes que se embarcan en unas vacaciones con su madre, pero sin su padre, un evangelista itinerante. A medida que atraviesan el estado de Massachusetts, sumido en plena Guerra Civil, descubren el amor y la importancia de los lazos familiares.

Audio Español Latino AC3 2.0 Itunes – EAC3 5.1 Amazon

Ficha técnica

  • Titulo original: Little Women
  • Fecha de lanzamiento: 25-12-2019 (United States of America)
  • Director: Greta Gerwig
  • Género: Drama, Romance

Video trailer de la película

Enlaces de descarga

Rip de Bluray

Descargar Mujercitas (2019) AMZN Web-DL 1080p Latino




Aportes de DPeliculasHDmega la pass es:dpeliculashdmega.org Aportes de CinemaniaHD la pass es:cinemaniahdd.com
Guardado en : Drama , Romance

Películas relacionadas

  • Togo (2022) NF WEB-DL 1080p Latino

    Togo (2022) NF WEB-DL 1080p Latino

    2022
    Togo (2022) NF WEB-DL 1080p Latino

    1h 35m 2022

    Descargar Togo (2022) NF WEB-DL 1080p Latino. Los narcos de poca monta están copando las calles de Montevideo...

    Director: Adrián Caetano

    Género: Crimen

    Actores: Tito Prieto

  • El Ultimo Juego (2021) WEB-DL 1080p Latino

    El Ultimo Juego (2021) WEB-DL 1080p Latino

    2021
    El Ultimo Juego (2021) WEB-DL 1080p Latino

    1h 21m 2021

    Descargar El Ultimo Juego (2021) WEB-DL 1080p Latino. 6 extraños se despiertan dentro de una habitación...

    Director: John David Moffat IV

    Género: Drama

    Actores: Yasmin Irvine

descargar Mujercitas (2019) AMZN Web-DL 1080p Latino WEBDL 1080p gratis, Mujercitas (2019) AMZN Web-DL 1080p Latino WEBDL mega 1 link, Mujercitas (2019) AMZN Web-DL 1080p Latino WEBDL pelicula completa, descargar Mujercitas (2019) AMZN Web-DL 1080p Latino WEBDL gratis en mega.

Mujercitas (2019) AMZN Web-DL 1080p Latino pelicula full hd, Mujercitas (2019) AMZN Web-DL 1080p Latino mega latino, Mujercitas (2019) AMZN Web-DL 1080p Latino 4k latino, Mujercitas (2019) AMZN Web-DL 1080p Latino pelicula completa, Mujercitas (2019) AMZN Web-DL 1080p Latino descargar gratis, descargar Mujercitas (2019) AMZN Web-DL 1080p Latino pelicula latino, Mujercitas (2019) AMZN Web-DL 1080p Latino 1 link mega, Mujercitas (2019) AMZN Web-DL 1080p Latino 1 link google drive, Mujercitas (2019) AMZN Web-DL 1080p Latino hd 1080p latino.
Comentarios 2
  • Ivan - 11 marzo, 2020

    Buenas noches. Muchas gracias por el aporte pero nos enlaces públicos están bloqueados como si fueran para cuentas vip.

    • CinefiloCool - 11 marzo, 2020

      Corregido, gracias por avisar 😀