×

¿Problemas para descargar con Mozilla, EDGE? Deshabilita la opción "Abrir vinculos en una pestaña nueva" tal como lo muestra ésta imagen.

Little Women (2017) Primera Temporada AMZN WEB-DL 1080p Latino

306 vistas

Información de Little Women (2017) Primera Temporada AMZN WEB-DL 1080p Latino

Datos de la película

  • Calidad: 1080p
  • Audio: Español Latino AC3 5.1 WEB-DL - Ingles AC3 5.1 WEB-DL
  • Subtitulos: Español Latino SRT- FORZADOS SRT
  • Resolución: 1920x1080
  • Formato: MKV
  • Codec: H.264
  • Encoder: cinemaniahdd
  • Mediainfo: Clic para Mostrar Datos Ver
  • Little Women T01E01 AMZN WEB-DL 1080p Latino [CNMNHDD].mkv
    Format                      : Matroska
    Format version              : Version 4
    File size                   : 4.60 GiB
    Duration                    : 58 min 43 s
    Overall bit rate            : 11.2 Mb/s
    Movie name                  : Little Women S01E01 - Part One [1080p] - CinemaniaHDD.Net
    Encoded date                : UTC 2022-08-01 23:44:23
    Writing application         : mkvmerge v56.1.0 ('My Friend') 64-bit
    Writing library             : libebml v1.4.2 + libmatroska v1.6.4

    Video
    ID                          : 1
    Format                      : AVC
    Format/Info                 : Advanced Video Codec
    Format profile              : High@L4
    Format settings             : CABAC / 4 Ref Frames
    Format settings, CABAC      : Yes
    Format settings, Reference  : 4 frames
    Codec ID                    : V_MPEG4/ISO/AVC
    Duration                    : 58 min 43 s
    Bit rate mode               : Constant
    Bit rate                    : 9 296 kb/s
    Nominal bit rate            : 10 000 kb/s
    Width                       : 1 920 pixels
    Height                      : 1 080 pixels
    Display aspect ratio        : 16:9
    Frame rate mode             : Constant
    Frame rate                  : 25.000 FPS
    Color space                 : YUV
    Chroma subsampling          : 4:2:0
    Bit depth                   : 8 bits
    Scan type                   : Progressive
    Bits/(Pixel*Frame)          : 0.179
    Stream size                 : 3.81 GiB (83%)
    Title                       : CinemaniaHDD
    Default                     : Yes
    Forced                      : No
    Color range                 : Limited
    Color primaries             : BT.709
    Transfer characteristics    : BT.709
    Matrix coefficients         : BT.709

    Audio #1
    ID                          : 2
    Format                      : AC-3
    Format/Info                 : Audio Coding 3
    Commercial name             : Dolby Digital
    Codec ID                    : A_AC3
    Duration                    : 58 min 43 s
    Bit rate mode               : Constant
    Bit rate                    : 640 kb/s
    Channel(s)                  : 6 channels
    Channel layout              : L R C LFE Ls Rs
    Sampling rate               : 48.0 kHz
    Frame rate                  : 31.250 FPS (1536 SPF)
    Compression mode            : Lossy
    Stream size                 : 269 MiB (6%)
    Title                       : Español latino [CinemaniaHDD]
    Language                    : Spanish
    Service kind                : Complete Main
    Default                     : Yes
    Forced                      : No

    Audio #2
    ID                          : 3
    Format                      : E-AC-3
    Format/Info                 : Enhanced AC-3
    Commercial name             : Dolby Digital Plus
    Codec ID                    : A_EAC3
    Duration                    : 58 min 43 s
    Bit rate mode               : Constant
    Bit rate                    : 640 kb/s
    Channel(s)                  : 6 channels
    Channel layout              : L R C LFE Ls Rs
    Sampling rate               : 48.0 kHz
    Frame rate                  : 31.250 FPS (1536 SPF)
    Compression mode            : Lossy
    Stream size                 : 269 MiB (6%)
    Title                       : Español latino / E-AC3 [CinemaniaHDD]
    Language                    : Spanish
    Service kind                : Complete Main
    Default                     : No
    Forced                      : No

    Audio #3
    ID                          : 4
    Format                      : E-AC-3
    Format/Info                 : Enhanced AC-3
    Commercial name             : Dolby Digital Plus
    Codec ID                    : A_EAC3
    Duration                    : 58 min 43 s
    Bit rate mode               : Constant
    Bit rate                    : 640 kb/s
    Channel(s)                  : 6 channels
    Channel layout              : L R C LFE Ls Rs
    Sampling rate               : 48.0 kHz
    Frame rate                  : 31.250 FPS (1536 SPF)
    Compression mode            : Lossy
    Stream size                 : 269 MiB (6%)
    Title                       : Inglés [CinemaniaHDD]
    Language                    : English
    Service kind                : Complete Main
    Default                     : No
    Forced                      : No

    Text #1
    ID                          : 5
    Format                      : UTF-8
    Codec ID                    : S_TEXT/UTF8
    Codec ID/Info               : UTF-8 Plain Text
    Duration                    : 4 min 51 s
    Bit rate                    : 1 b/s
    Count of elements           : 3
    Stream size                 : 69.0 Bytes (0%)
    Title                       : Forzados [CinemaniaHDD]
    Language                    : Spanish
    Default                     : Yes
    Forced                      : Yes

    Text #2
    ID                          : 6
    Format                      : UTF-8
    Codec ID                    : S_TEXT/UTF8
    Codec ID/Info               : UTF-8 Plain Text
    Duration                    : 57 min 56 s
    Bit rate                    : 55 b/s
    Count of elements           : 640
    Stream size                 : 23.4 KiB (0%)
    Title                       : Español latino [CinemaniaHDD]
    Language                    : Spanish
    Default                     : No
    Forced                      : No

    Text #3
    ID                          : 7
    Format                      : UTF-8
    Codec ID                    : S_TEXT/UTF8
    Codec ID/Info               : UTF-8 Plain Text
    Duration                    : 58 min 15 s
    Bit rate                    : 66 b/s
    Count of elements           : 909
    Stream size                 : 28.4 KiB (0%)
    Title                       : Inglés [CinemaniaHDD]
    Language                    : English
    Default                     : No
    Forced                      : No

     

  • Peso: 4.60 GiB Aprox ---- 14 GiB in 3 Chapters.

Sinopsis

En esta historia de crecimiento, Mujercitas sigue a las hermanas March en su viaje de la niñez a la adultez bajo la guía de su madre Marmee mientras su padre está en la guerra.

Ficha técnica

  • Titulo original: Little Women
  • Fecha de lanzamiento: 26-12-2017 (GB, US)
  • Director: Heidi Thomas
  • Género: Drama, Series

Video trailer de la película

Enlaces de descarga

Rip de Bluray

Descargar Little Women (2017) Primera Temporada AMZN WEB-DL 1080p Latino




Aportes de DPeliculasHDmega la pass es:dpeliculashdmega.org Aportes de CinemaniaHD la pass es:cinemaniahdd.com
Guardado en : Drama , Series

Películas relacionadas

  • Emily la criminal (2022) HD 1080p Latino

    Emily la criminal (2022) HD 1080p Latino

    2022
    Emily la criminal (2022) HD 1080p Latino

    1h 37m 2022

    Descargar Emily la criminal (2022) HD 1080p Latino. Emily, que tiene una deuda estudiantil y está excluida...

    Director: John Patton Ford

    Género: Crimen

    Actores: Theo Rossi

  • Emily la criminal (2022) REMUX 1080p Latino

    Emily la criminal (2022) REMUX 1080p Latino

    2022
    Emily la criminal (2022) REMUX 1080p Latino

    1h 37m 2022

    Descargar Emily la criminal (2022) REMUX 1080p Latino. Emily, que tiene una deuda estudiantil y está...

    Director: John Patton Ford

    Género: Crimen

    Actores: Theo Rossi

  • Território Hostil (2022) HD 1080p Latino

    Território Hostil (2022) HD 1080p Latino

    2022
    Território Hostil (2022) HD 1080p Latino

    1h 34m 2022

    Descargar Território Hostil (2022) HD 1080p Latino. En los Estados Unidos posteriores a la guerra civil,...

    Director: Brian Presley

    Género: Drama

    Actores: Natalie Whittle

descargar Little Women (2017) Primera Temporada AMZN WEB-DL 1080p Latino 1080p 1080p gratis, Little Women (2017) Primera Temporada AMZN WEB-DL 1080p Latino 1080p mega 1 link, Little Women (2017) Primera Temporada AMZN WEB-DL 1080p Latino 1080p serie completa, descargar Little Women (2017) Primera Temporada AMZN WEB-DL 1080p Latino 1080p gratis en mega.

Little Women (2017) Primera Temporada AMZN WEB-DL 1080p Latino pelicula full hd, Little Women (2017) Primera Temporada AMZN WEB-DL 1080p Latino mega latino, Little Women (2017) Primera Temporada AMZN WEB-DL 1080p Latino 4k latino, Little Women (2017) Primera Temporada AMZN WEB-DL 1080p Latino pelicula completa, Little Women (2017) Primera Temporada AMZN WEB-DL 1080p Latino descargar gratis, descargar Little Women (2017) Primera Temporada AMZN WEB-DL 1080p Latino pelicula latino, Little Women (2017) Primera Temporada AMZN WEB-DL 1080p Latino 1 link mega, Little Women (2017) Primera Temporada AMZN WEB-DL 1080p Latino 1 link google drive, Little Women (2017) Primera Temporada AMZN WEB-DL 1080p Latino hd 1080p latino.
Comentarios 0