×

¿Problemas para descargar con Mozilla, EDGE? Deshabilita la opción "Abrir vinculos en una pestaña nueva" tal como lo muestra ésta imagen.

Little Shop of Horrors (1986) REMUX 1080p Latino – CMHDD

362 vistas

Información de Little Shop of Horrors (1986) REMUX 1080p Latino – CMHDD

Datos de la película

  • Calidad: Full 1080p
  • Audio: Se especifica abajo de la Sinopsis
  • Subtitulos: Español Latino PGS
  • Resolución: 1920x1080p
  • Formato: MKV
  • Codec: H.264
  • Encoder: Dracarys
  • Mediainfo: Clic para Mostrar Datos Ver
  • Format                      : Matroska
    Format version              : Version 4
    File size                   : 22.6 GiB
    Duration                    : 1 h 33 min
    Overall bit rate mode       : Variable
    Overall bit rate            : 34.4 Mb/s
    Movie name                  : Little Shop of Horrors (1986) REMUX 1080p Latino - CMHDD
    Encoded date                : UTC 2022-05-23 02:46:33
    Writing application         : mkvmerge v17.0.0 ('Be Ur Friend') 64-bit
    Writing library             : libebml v1.3.5 + libmatroska v1.4.8

    Video
    ID                          : 1
    Format                      : AVC
    Format/Info                 : Advanced Video Codec
    Format profile              : High@L4.1
    Format settings             : CABAC / 2 Ref Frames
    Format settings, CABAC      : Yes
    Format settings, Reference  : 2 frames
    Codec ID                    : V_MPEG4/ISO/AVC
    Duration                    : 1 h 33 min
    Bit rate mode               : Variable
    Bit rate                    : 29.9 Mb/s
    Width                       : 1 920 pixels
    Height                      : 1 080 pixels
    Display aspect ratio        : 16:9
    Frame rate mode             : Constant
    Frame rate                  : 23.976 (24000/1001) FPS
    Color space                 : YUV
    Chroma subsampling          : 4:2:0
    Bit depth                   : 8 bits
    Scan type                   : Progressive
    Bits/(Pixel*Frame)          : 0.602
    Stream size                 : 19.6 GiB (87%)
    Default                     : Yes
    Forced                      : No

    Audio #1
    ID                          : 2
    Format                      : DTS XLL
    Format/Info                 : Digital Theater Systems
    Commercial name             : DTS-HD Master Audio
    Codec ID                    : A_DTS
    Duration                    : 1 h 33 min
    Bit rate mode               : Variable
    Bit rate                    : 4 322 kb/s
    Channel(s)                  : 6 channels
    Channel layout              : C L R Ls Rs LFE
    Sampling rate               : 48.0 kHz
    Frame rate                  : 93.750 FPS (512 SPF)
    Bit depth                   : 24 bits
    Compression mode            : Lossless
    Stream size                 : 2.83 GiB (13%)
    Language                    : English
    Default                     : No
    Forced                      : No

    Audio #2
    ID                          : 3
    Format                      : AC-3
    Format/Info                 : Audio Coding 3
    Commercial name             : Dolby Digital
    Codec ID                    : A_AC3
    Duration                    : 1 h 33 min
    Bit rate mode               : Constant
    Bit rate                    : 192 kb/s
    Channel(s)                  : 1 channel
    Channel layout              : C
    Sampling rate               : 48.0 kHz
    Frame rate                  : 31.250 FPS (1536 SPF)
    Compression mode            : Lossy
    Stream size                 : 129 MiB (1%)
    Language                    : Spanish
    Service kind                : Complete Main
    Default                     : Yes
    Forced                      : No

    Text
    ID                          : 4
    Format                      : PGS
    Muxing mode                 : zlib
    Codec ID                    : S_HDMV/PGS
    Codec ID/Info               : Picture based subtitle format used on BDs/HD-DVDs
    Duration                    : 1 h 32 min
    Bit rate                    : 25.5 kb/s
    Count of elements           : 2180
    Stream size                 : 16.9 MiB (0%)
    Language                    : Spanish
    Default                     : No
    Forced                      : No

    Menu
    00:00:00.000                : en:Chapter 1
    00:06:09.869                : en:Chapter 2
    00:10:36.677                : en:Chapter 3
    00:12:44.805                : en:Chapter 4
    00:14:05.052                : en:Chapter 5
    00:16:15.474                : en:Chapter 6
    00:20:59.424                : en:Chapter 7
    00:24:57.662                : en:Chapter 8
    00:29:22.761                : en:Chapter 9
    00:30:58.481                : en:Chapter 10
    00:33:12.782                : en:Chapter 11
    00:35:45.518                : en:Chapter 12
    00:38:59.754                : en:Chapter 13
    00:44:55.442                : en:Chapter 14
    00:52:34.234                : en:Chapter 15
    00:58:28.588                : en:Chapter 16
    01:02:44.927                : en:Chapter 17
    01:06:47.837                : en:Chapter 18
    01:10:49.620                : en:Chapter 19
    01:19:58.335                : en:Chapter 20
    01:27:28.034                : en:Chapter 21

  • Peso: 22.6 GiB

Sinopsis

Seymour, un joven dependiente de una floristería, está enamorado de su compañera Audrie, pero ella sale con un sádico dentista. Un día, justo después de un extraño eclipse, compra una pequeña planta, a la que bautiza como Audrie II. La planta comenzará a moverse e incluso a hablar con Seymour, de forma que se convierte en una atracción para la ciudad. Poco pueden imaginar todos que realmente es un ser abominable, que Seymour casualmente ha descubierto que se alimenta de sangre humana.

 

 

Latino: AC3 1.0  –  Inglés: DTS 5.1

Ficha técnica

  • Titulo original: Little Shop of Horrors
  • Fecha de lanzamiento: 19-12-1986 (United States of America)
  • Director: Frank Oz
  • Género: Comedia, Terror

Video trailer de la película

Enlaces de descarga

Rip de Bluray

Descargar Little Shop of Horrors (1986) REMUX 1080p Latino – CMHDD


Aportes de DPeliculasHDmega la pass es:dpeliculashdmega.org Aportes de CinemaniaHD la pass es:cinemaniahdd.com
Guardado en : Comedia , Terror

Películas relacionadas

  • Lobo Vikingo (2022) NF WEB-DL 1080p Latino

    Lobo Vikingo (2022) NF WEB-DL 1080p Latino

    2022
    Lobo Vikingo (2022) NF WEB-DL 1080p Latino

    1h 38m 2022

    Descargar Lobo Vikingo (2022) NF WEB-DL 1080p Latino. Thale (17) acaba de mudarse con sus padres a un...

    Director: Stig Svendsen

    Género: Netflix

    Actores: Vidar Magnussen

  • Hombre de familia (2000) REMUX 1080p Latino

    Hombre de familia (2000) REMUX 1080p Latino

    2000
    Hombre de familia (2000) REMUX 1080p Latino

    2h 1m 2000

    Descargar Hombre de familia (2000) REMUX 1080p Latino. Jack Campbell es un egocéntrico broker de Wall...

    Director: Robert Schroer

    Género: Comedia

    Actores: Wass Stevens

  • Te Amo Brother (2009) REMUX 1080p Latino

    Te Amo Brother (2009) REMUX 1080p Latino

    2009
    Te Amo Brother (2009) REMUX 1080p Latino

    1h 45m 2009

    Descargar Te Amo Brother (2009) REMUX 1080p Latino. Peter Klaven (Paul Rudd) es un joven que vive muy...

    Director: Scott Robertson

    Género: Comedia

    Actores: Vicki Davis

descargar Little Shop of Horrors (1986) REMUX 1080p Latino – CMHDD Full 1080p 1080p gratis, Little Shop of Horrors (1986) REMUX 1080p Latino – CMHDD Full 1080p mega 1 link, Little Shop of Horrors (1986) REMUX 1080p Latino – CMHDD Full 1080p pelicula completa, descargar Little Shop of Horrors (1986) REMUX 1080p Latino – CMHDD Full 1080p gratis en mega.

Little Shop of Horrors (1986) REMUX 1080p Latino – CMHDD pelicula full hd, Little Shop of Horrors (1986) REMUX 1080p Latino – CMHDD mega latino, Little Shop of Horrors (1986) REMUX 1080p Latino – CMHDD 4k latino, Little Shop of Horrors (1986) REMUX 1080p Latino – CMHDD pelicula completa, Little Shop of Horrors (1986) REMUX 1080p Latino – CMHDD descargar gratis, descargar Little Shop of Horrors (1986) REMUX 1080p Latino – CMHDD pelicula latino, Little Shop of Horrors (1986) REMUX 1080p Latino – CMHDD 1 link mega, Little Shop of Horrors (1986) REMUX 1080p Latino – CMHDD 1 link google drive, Little Shop of Horrors (1986) REMUX 1080p Latino – CMHDD hd 1080p latino.
Comentarios 0