×

¿Problemas para descargar con Mozilla, EDGE? Deshabilita la opción "Abrir vinculos en una pestaña nueva" tal como lo muestra ésta imagen.

Little Fockers (2010) REMUX 1080p Latino – CMHDD

236 vistas

Información de Little Fockers (2010) REMUX 1080p Latino – CMHDD

Datos de la película

  • Calidad: Full 1080p
  • Audio: Español Latino AC3 5.1 BLURAY - Ingles DTS 5.1 BLURAY
  • Subtitulos: Español Latino PGS
  • Resolución: 1920x1080p
  • Formato: MKV
  • Codec: H.264
  • Encoder: Dracarys
  • Mediainfo: Clic para Mostrar Datos Ver
  • Format                      : Matroska
    Format version              : Version 4
    File size                   : 24.3 GiB
    Duration                    : 1 h 37 min
    Overall bit rate mode       : Variable
    Overall bit rate            : 35.6 Mb/s
    Movie name                  : Little Fockers (2010) REMUX 1080p Latino - CMHDD
    Encoded date                : UTC 2022-03-09 15:49:32
    Writing application         : mkvmerge v17.0.0 ('Be Ur Friend') 64-bit
    Writing library             : libebml v1.3.5 + libmatroska v1.4.8

    Video
    ID                          : 1
    Format                      : AVC
    Format/Info                 : Advanced Video Codec
    Format profile              : High@L4.1
    Format settings             : CABAC / 4 Ref Frames
    Format settings, CABAC      : Yes
    Format settings, Reference  : 4 frames
    Codec ID                    : V_MPEG4/ISO/AVC
    Duration                    : 1 h 37 min
    Bit rate mode               : Variable
    Bit rate                    : 31.6 Mb/s
    Maximum bit rate            : 33.0 Mb/s
    Width                       : 1 920 pixels
    Height                      : 1 080 pixels
    Display aspect ratio        : 16:9
    Frame rate mode             : Constant
    Frame rate                  : 23.976 (24000/1001) FPS
    Color space                 : YUV
    Chroma subsampling          : 4:2:0
    Bit depth                   : 8 bits
    Scan type                   : Progressive
    Bits/(Pixel*Frame)          : 0.636
    Stream size                 : 21.6 GiB (89%)
    Default                     : Yes
    Forced                      : No
    Color range                 : Limited
    Color primaries             : BT.709
    Transfer characteristics    : BT.709
    Matrix coefficients         : BT.709

    Audio #1
    ID                          : 2
    Format                      : DTS XLL
    Format/Info                 : Digital Theater Systems
    Commercial name             : DTS-HD Master Audio
    Codec ID                    : A_DTS
    Duration                    : 1 h 37 min
    Bit rate mode               : Variable
    Bit rate                    : 3 275 kb/s
    Channel(s)                  : 6 channels
    Channel layout              : C L R Ls Rs LFE
    Sampling rate               : 48.0 kHz
    Frame rate                  : 93.750 FPS (512 SPF)
    Bit depth                   : 24 bits
    Compression mode            : Lossless
    Stream size                 : 2.24 GiB (9%)
    Language                    : English
    Default                     : No
    Forced                      : No

    Audio #2
    ID                          : 3
    Format                      : AC-3
    Format/Info                 : Audio Coding 3
    Commercial name             : Dolby Digital
    Codec ID                    : A_AC3
    Duration                    : 1 h 37 min
    Bit rate mode               : Constant
    Bit rate                    : 640 kb/s
    Channel(s)                  : 6 channels
    Channel layout              : L R C LFE Ls Rs
    Sampling rate               : 48.0 kHz
    Frame rate                  : 31.250 FPS (1536 SPF)
    Compression mode            : Lossy
    Stream size                 : 448 MiB (2%)
    Language                    : Spanish
    Service kind                : Complete Main
    Default                     : Yes
    Forced                      : No

    Text
    ID                          : 4
    Format                      : PGS
    Muxing mode                 : zlib
    Codec ID                    : S_HDMV/PGS
    Codec ID/Info               : Picture based subtitle format used on BDs/HD-DVDs
    Duration                    : 1 h 32 min
    Bit rate                    : 49.1 kb/s
    Count of elements           : 3333
    Stream size                 : 32.5 MiB (0%)
    Language                    : Spanish
    Default                     : No
    Forced                      : No

    Menu
    00:00:00.000                : en:Chapter 1
    00:03:02.891                : en:Chapter 2
    00:08:45.358                : en:Chapter 3
    00:12:11.731                : en:Chapter 4
    00:15:11.744                : en:Chapter 5
    00:20:26.016                : en:Chapter 6
    00:28:40.385                : en:Chapter 7
    00:33:50.570                : en:Chapter 8
    00:37:37.004                : en:Chapter 9
    00:40:15.913                : en:Chapter 10
    00:44:57.486                : en:Chapter 11
    00:49:33.053                : en:Chapter 12
    00:54:41.486                : en:Chapter 13
    00:58:29.464                : en:Chapter 14
    01:02:21.195                : en:Chapter 15
    01:08:39.448                : en:Chapter 16
    01:13:48.882                : en:Chapter 17
    01:20:46.466                : en:Chapter 18
    01:26:56.252                : en:Chapter 19
    01:31:31.444                : en:Chapter 20

  • Peso: 24.3 GiB

Sinopsis

Han tenido que pasar diez años, dos pequeños Fockers con su mujer, Pam (Polo) e incontables obstáculos para que Greg consiga finalmente entenderse con su exigente suegro Jack. Tras los problemas económicos, Greg consigue un segundo empleo en una compañía farmacéutica. Sin embargo, los recelos de Jack hacia su enfermero favorito regresan con más fuerza que nunca.

Ficha técnica

Video trailer de la película

Enlaces de descarga

Rip de Bluray

Descargar Little Fockers (2010) REMUX 1080p Latino – CMHDD


Aportes de DPeliculasHDmega la pass es:dpeliculashdmega.org Aportes de CinemaniaHD la pass es:cinemaniahdd.com
Guardado en : Comedia , Romance

Películas relacionadas

descargar Little Fockers (2010) REMUX 1080p Latino – CMHDD Full 1080p 1080p gratis, Little Fockers (2010) REMUX 1080p Latino – CMHDD Full 1080p mega 1 link, Little Fockers (2010) REMUX 1080p Latino – CMHDD Full 1080p pelicula completa, descargar Little Fockers (2010) REMUX 1080p Latino – CMHDD Full 1080p gratis en mega.

Little Fockers (2010) REMUX 1080p Latino – CMHDD pelicula full hd, Little Fockers (2010) REMUX 1080p Latino – CMHDD mega latino, Little Fockers (2010) REMUX 1080p Latino – CMHDD 4k latino, Little Fockers (2010) REMUX 1080p Latino – CMHDD pelicula completa, Little Fockers (2010) REMUX 1080p Latino – CMHDD descargar gratis, descargar Little Fockers (2010) REMUX 1080p Latino – CMHDD pelicula latino, Little Fockers (2010) REMUX 1080p Latino – CMHDD 1 link mega, Little Fockers (2010) REMUX 1080p Latino – CMHDD 1 link google drive, Little Fockers (2010) REMUX 1080p Latino – CMHDD hd 1080p latino.
Comentarios 0