×

¿Problemas para descargar con Mozilla, EDGE? Deshabilita la opción "Abrir vinculos en una pestaña nueva" tal como lo muestra ésta imagen.

Lisa Frankenstein (2024) PLACEBO Full HD 1080p Latino

85 vistas

Información de Lisa Frankenstein (2024) PLACEBO Full HD 1080p Latino

Datos de la película

  • Calidad: Full 1080p
  • Audio: Español Latino AC3 5.1 WEB-DL - Ingles DTS 5.1 BLURAY
  • Subtitulos: Español Latino PGS - Ingles PGS
  • Resolución: 1920x1080p
  • Formato: MKV
  • Codec: H.264
  • Encoder: Melkor
  • Mediainfo: Clic para Mostrar Datos Ver
  • Lisa Frankenstein (2024) PLACEBO 1080p Latino.mkv
    Format                      : Matroska
    Format version              : Version 4
    File size                   : 11.9 GiB
    Duration                    : 1 h 41 min
    Overall bit rate            : 16.8 Mb/s
    Movie name                  : Lisa Frankenstein (2024) CinemaniaHDD.Net
    Encoded date                : UTC 2024-04-11 05:35:47
    Writing application         : mkvmerge v56.1.0 ('My Friend') 64-bit
    Writing library             : libebml v1.4.2 + libmatroska v1.6.4
    Attachments                 : CINEMANIAHD.png
    Site                        : CinemaniaHDD.Net
    Uploader                    : Melkor

    Video
    ID                          : 1
    Format                      : AVC
    Format/Info                 : Advanced Video Codec
    Format profile              : High@L4.1
    Format settings             : CABAC / 4 Ref Frames
    Format settings, CABAC      : Yes
    Format settings, Reference  : 4 frames
    Codec ID                    : V_MPEG4/ISO/AVC
    Duration                    : 1 h 41 min
    Bit rate                    : 14.9 Mb/s
    Width                       : 1 920 pixels
    Height                      : 1 080 pixels
    Display aspect ratio        : 16:9
    Frame rate mode             : Constant
    Frame rate                  : 23.976 (24000/1001) FPS
    Color space                 : YUV
    Chroma subsampling          : 4:2:0
    Bit depth                   : 8 bits
    Scan type                   : Progressive
    Bits/(Pixel*Frame)          : 0.300
    Stream size                 : 10.5 GiB (89%)
    Title                       : Full HD1080p [CinemaniaHDD]
    Writing library             : x264 core 163 r3059 b684ebe0
    Encoding settings           : cabac=1 / ref=4 / deblock=1:0:0 / analyse=0x3:0x133 / me=tesa / subme=11 / psy=1 / psy_rd=1.00:0.00 / mixed_ref=1 / me_range=24 / chroma_me=1 / trellis=2 / 8x8dct=1 / cqm=0 / deadzone=21,11 / fast_pskip=0 / chroma_qp_offset=-2 / threads=24 / lookahead_threads=6 / sliced_threads=0 / nr=0 / decimate=1 / interlaced=0 / bluray_compat=0 / constrained_intra=0 / bframes=16 / b_pyramid=2 / b_adapt=2 / b_bias=0 / direct=3 / weightb=1 / open_gop=0 / weightp=2 / keyint=240 / keyint_min=24 / scenecut=40 / intra_refresh=0 / rc_lookahead=60 / rc=crf / mbtree=1 / crf=19.0 / qcomp=0.60 / qpmin=0 / qpmax=69 / qpstep=4 / vbv_maxrate=62500 / vbv_bufsize=78125 / crf_max=0.0 / nal_hrd=none / filler=0 / ip_ratio=1.40 / aq=1:1.00
    Default                     : Yes
    Forced                      : Yes
    Color range                 : Limited
    Color primaries             : BT.709
    Transfer characteristics    : BT.709
    Matrix coefficients         : BT.709

    Audio #1
    ID                          : 2
    Format                      : AC-3
    Format/Info                 : Audio Coding 3
    Commercial name             : Dolby Digital
    Codec ID                    : A_AC3
    Duration                    : 1 h 41 min
    Bit rate mode               : Constant
    Bit rate                    : 384 kb/s
    Channel(s)                  : 6 channels
    Channel layout              : L R C LFE Ls Rs
    Sampling rate               : 48.0 kHz
    Frame rate                  : 31.250 FPS (1536 SPF)
    Compression mode            : Lossy
    Stream size                 : 278 MiB (2%)
    Title                       : Español Latino [CinemaniaHDD]
    Language                    : Spanish
    Service kind                : Complete Main
    Default                     : Yes
    Forced                      : Yes

    Audio #2
    ID                          : 3
    Format                      : DTS
    Format/Info                 : Digital Theater Systems
    Codec ID                    : A_DTS
    Duration                    : 1 h 41 min
    Bit rate mode               : Constant
    Bit rate                    : 1 509 kb/s
    Channel(s)                  : 6 channels
    Channel layout              : C L R Ls Rs LFE
    Sampling rate               : 48.0 kHz
    Frame rate                  : 93.750 FPS (512 SPF)
    Bit depth                   : 24 bits
    Compression mode            : Lossy
    Stream size                 : 1.07 GiB (9%)
    Title                       : Ingles [CinemaniaHDD]
    Language                    : English
    Default                     : No
    Forced                      : No

    Text #1
    ID                          : 4
    Format                      : PGS
    Muxing mode                 : zlib
    Codec ID                    : S_HDMV/PGS
    Codec ID/Info               : Picture based subtitle format used on BDs/HD-DVDs
    Duration                    : 1 h 39 min
    Bit rate                    : 27.2 kb/s
    Count of elements           : 2216
    Stream size                 : 19.3 MiB (0%)
    Title                       : Español-PGS [CinemaniaHDD]
    Language                    : Spanish
    Default                     : No
    Forced                      : No

    Text #2
    ID                          : 5
    Format                      : PGS
    Muxing mode                 : zlib
    Codec ID                    : S_HDMV/PGS
    Codec ID/Info               : Picture based subtitle format used on BDs/HD-DVDs
    Duration                    : 1 h 38 min
    Bit rate                    : 47.3 kb/s
    Count of elements           : 3700
    Stream size                 : 33.5 MiB (0%)
    Title                       : Ingles [CinemaniaHDD]
    Language                    : English
    Default                     : No
    Forced                      : No

    Text #3
    ID                          : 6
    Format                      : UTF-8
    Codec ID                    : S_TEXT/UTF8
    Codec ID/Info               : UTF-8 Plain Text
    Duration                    : 57 min 1 s
    Bit rate                    : 0 b/s
    Count of elements           : 3
    Stream size                 : 61.0 Bytes (0%)
    Title                       : Forzados-SRT [CinemaniaHDD]
    Language                    : Spanish
    Default                     : Yes
    Forced                      : Yes

    Text #4
    ID                          : 7
    Format                      : UTF-8
    Codec ID                    : S_TEXT/UTF8
    Codec ID/Info               : UTF-8 Plain Text
    Duration                    : 1 h 35 min
    Bit rate                    : 46 b/s
    Count of elements           : 1348
    Stream size                 : 32.5 KiB (0%)
    Title                       : Español-SRT [CinemaniaHDD]
    Language                    : Spanish
    Default                     : No
    Forced                      : No

    Menu
    00:00:00.000                : :Chapter 01
    00:06:55.582                : :Chapter 02
    00:15:27.176                : :Chapter 03
    00:18:25.062                : :Chapter 04
    00:24:14.620                : :Chapter 05
    00:31:36.478                : :Chapter 06
    00:36:28.770                : :Chapter 07
    00:40:22.211                : :Chapter 08
    00:45:50.498                : :Chapter 09
    00:48:33.536                : :Chapter 10
    00:54:08.620                : :Chapter 11
    01:01:02.826                : :Chapter 12
    01:05:33.179                : :Chapter 13
    01:12:02.068                : :Chapter 14
    01:17:48.539                : :Chapter 15
    01:21:21.585                : :Chapter 16
    01:24:53.755                : :Chapter 17
    01:29:27.821                : :Chapter 18
    01:34:18.278                : :Chapter 19
    01:37:08.614                : :Chapter 20
    01:41:06.644                : :Chapter 21

  • Peso: 11.9 GiB

Sinopsis

Descargar Lisa Frankenstein (2024) PLACEBO Full HD 1080p Latino. En 1989, una impopular chica de secundaria llamada Lisa reanima accidentalmente un apuesto cadáver victoriano durante una tormenta eléctrica y comienza a reconstruirlo para convertirlo en el hombre de sus sueños usando la cama de rayos uva estropeada que tiene en su garaje.

Ficha técnica

Video trailer de la película

Enlaces de descarga

Rip de Bluray

Descargar Lisa Frankenstein (2024) PLACEBO Full HD 1080p Latino




Aportes de DPeliculasHDmega la pass es:dpeliculashdmega.org Aportes de CinemaniaHD la pass es:cinemaniahdd.com Aportes recientes:cinemaniahdd.net

Películas relacionadas

  • La primera profecía (2024) WEB-DL 1080p Latino

    La primera profecía (2024) WEB-DL 1080p Latino

    2024
    La primera profecía (2024) WEB-DL 1080p Latino

    1h 59m 2024

    Descargar La primera profecía (2024) WEB-DL 1080p Latino. Cuando una joven estadounidense es enviada...

    Director: Timothy Visentin

    Género: Terror

    Actores: Tawfeek Barhom

  • Perra vida (2024) AMZN WEB-DL 1080p Latino

    Perra vida (2024) AMZN WEB-DL 1080p Latino

    2024
    Perra vida (2024) AMZN WEB-DL 1080p Latino

    1h 48m 2024

    Descargar Perra vida (2024) AMZN WEB-DL 1080p Latino. Para contentar a su hija, Romina (una abogada obsesiva...

    Director: Gabriela Sobarzo

    Género: Comedia

    Actores: Sergio Chamy

  • Godzilla: Minus One (2023) 1080p SUB-CMHDD

    Godzilla: Minus One (2023) 1080p SUB-CMHDD

    2023
    Godzilla: Minus One (2023) 1080p SUB-CMHDD

    2h 5m 2023

    Descargar Godzilla: Minus One (2023) 1080p SUB-CMHDD. En el Japón de la posguerra surge un nuevo terror....

    Director: 山崎貴

    Género: Acción

    Actores: 鶴田翔

  • Kung Fu Panda 4 (2024) 1080p Latino-CMHDD

    Kung Fu Panda 4 (2024) 1080p Latino-CMHDD

    2024
    Kung Fu Panda 4 (2024) 1080p Latino-CMHDD

    1h 34m 2024

    Descargar Kung Fu Panda 4 (2024) 1080p Latino-CMHDD. Po se prepara para ser el líder espiritual del...

    Director: Stephanie Ma Stine

    Género: Acción

    Actores: Viola Davis

descargar Lisa Frankenstein (2024) PLACEBO Full HD 1080p Latino Full 1080p 1080p gratis, Lisa Frankenstein (2024) PLACEBO Full HD 1080p Latino Full 1080p mega 1 link, Lisa Frankenstein (2024) PLACEBO Full HD 1080p Latino Full 1080p pelicula completa, descargar Lisa Frankenstein (2024) PLACEBO Full HD 1080p Latino Full 1080p gratis en mega.

Lisa Frankenstein (2024) PLACEBO Full HD 1080p Latino pelicula full hd, Lisa Frankenstein (2024) PLACEBO Full HD 1080p Latino mega latino, Lisa Frankenstein (2024) PLACEBO Full HD 1080p Latino 4k latino, Lisa Frankenstein (2024) PLACEBO Full HD 1080p Latino pelicula completa, Lisa Frankenstein (2024) PLACEBO Full HD 1080p Latino descargar gratis, descargar Lisa Frankenstein (2024) PLACEBO Full HD 1080p Latino pelicula latino, Lisa Frankenstein (2024) PLACEBO Full HD 1080p Latino 1 link mega, Lisa Frankenstein (2024) PLACEBO Full HD 1080p Latino 1 link google drive, Lisa Frankenstein (2024) PLACEBO Full HD 1080p Latino hd 1080p latino.
Comentarios 0