×

¿Problemas para descargar con Mozilla, EDGE? Deshabilita la opción "Abrir vinculos en una pestaña nueva" tal como lo muestra ésta imagen.

Sin Limites (2011) UNRATED REMUX 1080p Latino

190 vistas

Información de Sin Limites (2011) UNRATED REMUX 1080p Latino

Datos de la película

  • Calidad: Full 1080p
  • Audio: Se especifica abajo de la Sinopsis
  • Subtitulos: Español Latino PGS - Ingles PGS
  • Resolución: 1920x1080p
  • Formato: MKV
  • Codec: H.264
  • Encoder: CinefiloCool
  • Mediainfo: Clic para Mostrar Datos Ver
  • Sin Limites (2011) UNRATED REMUX 1080p Latino-CMHDD.mkv
    Format                      : Matroska
    Format version              : Version 4
    File size                   : 27.0 GiB
    Duration                    : 1 h 45 min
    Overall bit rate mode       : Variable
    Overall bit rate            : 36.6 Mb/s
    Movie name                  : Limitless (2011) CinemaniaHDD.Net
    Encoded date                : UTC 2021-11-09 05:31:34
    Writing application         : mkvmerge v56.1.0 ('My Friend') 64-bit
    Writing library             : libebml v1.4.2 + libmatroska v1.6.4
    Attachments                 : CINEMANIAHD.png

    Video
    ID                          : 1
    Format                      : AVC
    Format/Info                 : Advanced Video Codec
    Format profile              : High@L4.1
    Format settings             : CABAC / 4 Ref Frames
    Format settings, CABAC      : Yes
    Format settings, Reference  : 4 frames
    Codec ID                    : V_MPEG4/ISO/AVC
    Duration                    : 1 h 45 min
    Bit rate mode               : Variable
    Bit rate                    : 33.5 Mb/s
    Maximum bit rate            : 36.0 Mb/s
    Width                       : 1 920 pixels
    Height                      : 1 080 pixels
    Display aspect ratio        : 16:9
    Frame rate mode             : Constant
    Frame rate                  : 23.976 (24000/1001) FPS
    Color space                 : YUV
    Chroma subsampling          : 4:2:0
    Bit depth                   : 8 bits
    Scan type                   : Progressive
    Bits/(Pixel*Frame)          : 0.673
    Stream size                 : 24.7 GiB (91%)
    Title                       : REMUX HD1080p [CinemaniaHDD]
    Default                     : Yes
    Forced                      : Yes

    Audio #1
    ID                          : 2
    Format                      : AC-3
    Format/Info                 : Audio Coding 3
    Commercial name             : Dolby Digital
    Codec ID                    : A_AC3
    Duration                    : 1 h 45 min
    Bit rate mode               : Constant
    Bit rate                    : 256 kb/s
    Channel(s)                  : 2 channels
    Channel layout              : L R
    Sampling rate               : 48.0 kHz
    Frame rate                  : 31.250 FPS (1536 SPF)
    Compression mode            : Lossy
    Stream size                 : 193 MiB (1%)
    Title                       : Español Latino [CinemaniaHDD]
    Language                    : Spanish
    Service kind                : Complete Main
    Default                     : Yes
    Forced                      : Yes

    Audio #2
    ID                          : 3
    Format                      : DTS XLL
    Format/Info                 : Digital Theater Systems
    Commercial name             : DTS-HD Master Audio
    Codec ID                    : A_DTS
    Duration                    : 1 h 45 min
    Bit rate mode               : Variable
    Bit rate                    : 2 854 kb/s
    Channel(s)                  : 6 channels
    Channel layout              : C L R Ls Rs LFE
    Sampling rate               : 48.0 kHz
    Frame rate                  : 93.750 FPS (512 SPF)
    Bit depth                   : 24 bits
    Compression mode            : Lossless
    Stream size                 : 2.10 GiB (8%)
    Title                       : Ingles [CinemaniaHDD]
    Language                    : English
    Default                     : No
    Forced                      : No

    Text #1
    ID                          : 4
    Format                      : PGS
    Muxing mode                 : zlib
    Codec ID                    : S_HDMV/PGS
    Codec ID/Info               : Picture based subtitle format used on BDs/HD-DVDs
    Duration                    : 1 h 44 min
    Bit rate                    : 38.5 kb/s
    Count of elements           : 2406
    Stream size                 : 28.8 MiB (0%)
    Title                       : Español-PGS [CinemaniaHDD]
    Language                    : Spanish
    Default                     : No
    Forced                      : No

    Text #2
    ID                          : 5
    Format                      : PGS
    Muxing mode                 : zlib
    Codec ID                    : S_HDMV/PGS
    Codec ID/Info               : Picture based subtitle format used on BDs/HD-DVDs
    Duration                    : 1 h 45 min
    Bit rate                    : 45.9 kb/s
    Count of elements           : 2750
    Stream size                 : 34.5 MiB (0%)
    Title                       : Ingles-PGS [CinemaniaHDD]
    Language                    : English
    Default                     : No
    Forced                      : No

    Text #3
    ID                          : 6
    Format                      : UTF-8
    Codec ID                    : S_TEXT/UTF8
    Codec ID/Info               : UTF-8 Plain Text
    Duration                    : 1 h 31 min
    Bit rate                    : 0 b/s
    Count of elements           : 11
    Stream size                 : 311 Bytes (0%)
    Title                       : Forzados-SRT [CinemaniaHDD]
    Language                    : Spanish
    Default                     : Yes
    Forced                      : Yes

    Text #4
    ID                          : 7
    Format                      : UTF-8
    Codec ID                    : S_TEXT/UTF8
    Codec ID/Info               : UTF-8 Plain Text
    Duration                    : 1 h 38 min
    Bit rate                    : 61 b/s
    Count of elements           : 1207
    Stream size                 : 44.5 KiB (0%)
    Title                       : Español-SRT [CinemaniaHDD]
    Language                    : Spanish
    Default                     : No
    Forced                      : No

    Menu
    00:00:00.000                : Chapter 01
    00:03:49.103                : Chapter 02
    00:06:55.915                : Chapter 03
    00:11:05.706                : Chapter 04
    00:16:28.362                : Chapter 05
    00:20:40.072                : Chapter 06
    00:24:20.834                : Chapter 07
    00:28:55.859                : Chapter 08
    00:34:09.172                : Chapter 09
    00:38:20.172                : Chapter 10
    00:42:26.418                : Chapter 11
    00:47:03.820                : Chapter 12
    00:51:24.247                : Chapter 13
    00:54:45.532                : Chapter 14
    00:59:36.948                : Chapter 15
    01:05:59.663                : Chapter 16
    01:09:07.935                : Chapter 17
    01:12:11.952                : Chapter 18
    01:15:12.299                : Chapter 19
    01:18:52.560                : Chapter 20
    01:22:20.350                : Chapter 21
    01:27:53.643                : Chapter 22
    01:32:29.960                : Chapter 23
    01:39:01.643                : Chapter 24
    01:45:33.743                : Chapter 25

  • Peso: 27.0 GiB

Sinopsis

Descargar Sin Limites (2011) UNRATED REMUX 1080p Latino. Un escritor (Bradley Cooper), que sufre una crisis de creatividad, prueba un día una nueva droga que lo pone en condiciones de usar al máximo todas sus facultades mentales; es una especie de píldora inteligente gracias a la cual consigue triunfar en Nueva York. Un poderoso financiero de Wall Street (De Niro) siente una extraordinaria curiosidad por averiguar qué se esconde detrás de tanto éxito…

Audio Español Latino Editado AC3 2.0 AMZN – Ingles DTS-HD 5.1 Bluray
Audio Latino: CinefiloCool Thanks!!!😀
DISPONIBLE SOLO PARA VIP!!

Nota: No Necesita Subtitulos Forzados!!

Ficha técnica

Video trailer de la película

Enlaces de descarga

Rip de Bluray

Descargar Sin Limites (2011) UNRATED REMUX 1080p Latino


Aportes de DPeliculasHDmega la pass es:dpeliculashdmega.org Aportes de CinemaniaHD la pass es:cinemaniahdd.com

Películas relacionadas

  • Tren Bala (2022) WEB-DL 4K UHD HDR Latino

    Tren Bala (2022) WEB-DL 4K UHD HDR Latino

    2022
    Tren Bala (2022) WEB-DL 4K UHD HDR Latino

    2h 7m 2022

    Descargar Tren Bala (2022) WEB-DL 4K UHD HDR Latino. El desafortunado asesino "Catarina" está decidido...

    Director: Paul Barry

    Género: 4K HDR

    Actores: Zooey Miyoshi

  • Tren Bala (2022) AMZN WEB-DL 1080p Latino

    Tren Bala (2022) AMZN WEB-DL 1080p Latino

    2022
    Tren Bala (2022) AMZN WEB-DL 1080p Latino

    2h 7m 2022

    Descargar Tren Bala (2022) AMZN WEB-DL 1080p Latino. Cinco asesinos a sueldo se encuentran a bordo de...

    Director: Paul Barry

    Género: Acción

    Actores: Zooey Miyoshi

  • Infiniti (2022) Primera Temporada WEB-DL 1080p Latino

    Infiniti (2022) Primera Temporada WEB-DL 1080p Latino

    2022
    Infiniti (2022) Primera Temporada WEB-DL 1080p Latino

    0h 52m 2022

    La ISS, la Estación Espacial Internacional se ha quedado en silencio. La tripulación está en peligro....

    Director: Stéphane Pannetier

    Género: Drama

    Actores: Vlad Ivanov

  • Athena (2022) NF WEB-DL 1080p Latino

    Athena (2022) NF WEB-DL 1080p Latino

    2022
    Athena (2022) NF WEB-DL 1080p Latino

    1h 37m 2022

    Descargar Athena (2022) NF WEB-DL 1080p Latino. Horas después de la trágica muerte de su hermano menor...

    Director: Romain Gavras

    Género: Acción

    Actores: Tarek Haddaji

  • Lou (2022) NF WEB-DL 1080p Latino

    Lou (2022) NF WEB-DL 1080p Latino

    2022
    Lou (2022) NF WEB-DL 1080p Latino

    1h 47m 2022

    Descargar Lou (2022) NF WEB-DL 1080p Latino. Una mujer misteriosa y solitaria lucha contra las inclemencias...

    Director: Anna Foerster

    Género: Acción

    Actores: Toby Levins

descargar Sin Limites (2011) UNRATED REMUX 1080p Latino Full 1080p 1080p gratis, Sin Limites (2011) UNRATED REMUX 1080p Latino Full 1080p mega 1 link, Sin Limites (2011) UNRATED REMUX 1080p Latino Full 1080p pelicula completa, descargar Sin Limites (2011) UNRATED REMUX 1080p Latino Full 1080p gratis en mega.

Sin Limites (2011) UNRATED REMUX 1080p Latino pelicula full hd, Sin Limites (2011) UNRATED REMUX 1080p Latino mega latino, Sin Limites (2011) UNRATED REMUX 1080p Latino 4k latino, Sin Limites (2011) UNRATED REMUX 1080p Latino pelicula completa, Sin Limites (2011) UNRATED REMUX 1080p Latino descargar gratis, descargar Sin Limites (2011) UNRATED REMUX 1080p Latino pelicula latino, Sin Limites (2011) UNRATED REMUX 1080p Latino 1 link mega, Sin Limites (2011) UNRATED REMUX 1080p Latino 1 link google drive, Sin Limites (2011) UNRATED REMUX 1080p Latino hd 1080p latino.
Comentarios 0