×

¿Problemas para descargar con Mozilla, EDGE? Deshabilita la opción "Abrir vinculos en una pestaña nueva" tal como lo muestra ésta imagen.

Sin Limites (2011) OPEN MATTE Web-DL 1080p Latino

240 vistas

Información de Sin Limites (2011) OPEN MATTE Web-DL 1080p Latino

Datos de la película

  • Calidad: WEBDL
  • Audio: Se especifica abajo de la Sinopsis
  • Subtitulos: Español Latino SRT - Ingles SRT
  • Resolución: 1920x1080p
  • Formato: MKV
  • Codec: H.264
  • Encoder: CinefiloCool
  • Mediainfo: Clic para Mostrar Datos Ver
  • Sin Limites (2011) OPEN MATTE Web 1080p Latino-CMHDD.mkv
    Format                      : Matroska
    Format version              : Version 4
    File size                   : 8.11 GiB
    Duration                    : 1 h 44 min
    Overall bit rate            : 11.1 Mb/s
    Movie name                  : Limitless (2011) CinemaniaHDD.Net
    Encoded date                : UTC 2021-11-08 07:56:52
    Writing application         : mkvmerge v56.1.0 ('My Friend') 64-bit
    Writing library             : libebml v1.4.2 + libmatroska v1.6.4
    Attachments                 : CINEMANIAHD.png

    Video
    ID                          : 1
    Format                      : AVC
    Format/Info                 : Advanced Video Codec
    Format profile              : High@L4
    Format settings             : CABAC / 4 Ref Frames
    Format settings, CABAC      : Yes
    Format settings, Reference  : 4 frames
    Codec ID                    : V_MPEG4/ISO/AVC
    Duration                    : 1 h 44 min
    Bit rate                    : 9 957 kb/s
    Width                       : 1 920 pixels
    Height                      : 1 080 pixels
    Display aspect ratio        : 16:9
    Frame rate mode             : Constant
    Frame rate                  : 23.976 (24000/1001) FPS
    Color space                 : YUV
    Chroma subsampling          : 4:2:0
    Bit depth                   : 8 bits
    Scan type                   : Progressive
    Bits/(Pixel*Frame)          : 0.200
    Stream size                 : 7.29 GiB (90%)
    Title                       : Web Open Matte [CinemaniaHDD]
    Language                    : English
    Default                     : Yes
    Forced                      : Yes
    Color range                 : Limited
    Color primaries             : BT.709
    Transfer characteristics    : BT.709
    Matrix coefficients         : BT.709

    Audio #1
    ID                          : 2
    Format                      : AC-3
    Format/Info                 : Audio Coding 3
    Commercial name             : Dolby Digital
    Codec ID                    : A_AC3
    Duration                    : 1 h 44 min
    Bit rate mode               : Constant
    Bit rate                    : 256 kb/s
    Channel(s)                  : 2 channels
    Channel layout              : L R
    Sampling rate               : 48.0 kHz
    Frame rate                  : 31.250 FPS (1536 SPF)
    Compression mode            : Lossy
    Stream size                 : 192 MiB (2%)
    Title                       : Español Latino AC3 [CinemaniaHDD]
    Language                    : Spanish
    Service kind                : Complete Main
    Default                     : Yes
    Forced                      : Yes

    Audio #2
    ID                          : 3
    Format                      : E-AC-3
    Format/Info                 : Enhanced AC-3
    Commercial name             : Dolby Digital Plus
    Codec ID                    : A_EAC3
    Duration                    : 1 h 44 min
    Bit rate mode               : Constant
    Bit rate                    : 640 kb/s
    Channel(s)                  : 6 channels
    Channel layout              : L R C LFE Ls Rs
    Sampling rate               : 48.0 kHz
    Frame rate                  : 31.250 FPS (1536 SPF)
    Compression mode            : Lossy
    Stream size                 : 480 MiB (6%)
    Title                       : Ingles [CinemaniaHDD]
    Language                    : English
    Service kind                : Complete Main
    Default                     : No
    Forced                      : No

    Audio #3
    ID                          : 4
    Format                      : E-AC-3
    Format/Info                 : Enhanced AC-3
    Commercial name             : Dolby Digital Plus
    Codec ID                    : A_EAC3
    Duration                    : 1 h 44 min
    Bit rate mode               : Constant
    Bit rate                    : 224 kb/s
    Channel(s)                  : 2 channels
    Channel layout              : L R
    Sampling rate               : 48.0 kHz
    Frame rate                  : 31.250 FPS (1536 SPF)
    Compression mode            : Lossy
    Stream size                 : 168 MiB (2%)
    Title                       : Español Latino EAC3 [CinemaniaHDD]
    Language                    : Spanish
    Service kind                : Complete Main
    Default                     : No
    Forced                      : No

    Text #1
    ID                          : 5
    Format                      : UTF-8
    Codec ID                    : S_TEXT/UTF8
    Codec ID/Info               : UTF-8 Plain Text
    Duration                    : 1 h 29 min
    Bit rate                    : 0 b/s
    Count of elements           : 3
    Stream size                 : 56.0 Bytes (0%)
    Title                       : Forzados-SRT [CinemaniaHDD]
    Language                    : Spanish
    Default                     : Yes
    Forced                      : Yes

    Text #2
    ID                          : 6
    Format                      : UTF-8
    Codec ID                    : S_TEXT/UTF8
    Codec ID/Info               : UTF-8 Plain Text
    Duration                    : 1 h 37 min
    Bit rate                    : 52 b/s
    Count of elements           : 1047
    Stream size                 : 37.4 KiB (0%)
    Title                       : Español-SRT [CinemaniaHDD]
    Language                    : Spanish
    Default                     : No
    Forced                      : No

    Text #3
    ID                          : 7
    Format                      : UTF-8
    Codec ID                    : S_TEXT/UTF8
    Codec ID/Info               : UTF-8 Plain Text
    Duration                    : 1 h 44 min
    Bit rate                    : 71 b/s
    Count of elements           : 1367
    Stream size                 : 54.4 KiB (0%)
    Title                       : Ingles-SRT [CinemaniaHDD]
    Language                    : English
    Default                     : No
    Forced                      : No

    Menu
    00:00:00.000                : :00:00:00.000
    00:03:49.104                : :00:03:49.104
    00:06:52.621                : :00:06:52.621
    00:11:02.412                : :00:11:02.412
    00:16:24.108                : :00:16:24.108
    00:20:36.485                : :00:20:36.485
    00:24:16.246                : :00:24:16.246
    00:28:51.772                : :00:28:51.772
    00:34:04.209                : :00:34:04.209
    00:38:12.081                : :00:38:12.081
    00:42:17.535                : :00:42:17.535
    00:46:43.968                : :00:46:43.968
    00:51:04.395                : :00:51:04.395
    00:54:25.679                : :00:54:25.679
    00:59:17.512                : :00:59:17.512
    01:05:38.685                : :01:05:38.685
    01:08:36.571                : :01:08:36.571
    01:11:40.046                : :01:11:40.046
    01:14:40.184                : :01:14:40.184
    01:18:20.446                : :01:18:20.446
    01:21:46.943                : :01:21:46.943
    01:27:14.771                : :01:27:14.771
    01:31:43.164                : :01:31:43.164
    01:38:14.055                : :01:38:14.055

  • Peso: 8.11 GiB

Sinopsis

Descargar Sin Limites (2011) OPEN MATTE Web-DL 1080p Latino. Un escritor (Bradley Cooper), que sufre una crisis de creatividad, prueba un día una nueva droga que lo pone en condiciones de usar al máximo todas sus facultades mentales; es una especie de píldora inteligente gracias a la cual consigue triunfar en Nueva York. Un poderoso financiero de Wall Street (De Niro) siente una extraordinaria curiosidad por averiguar qué se esconde detrás de tanto éxito…

Audio Español Latino EAC3 + AC3 2.0 AMZN – Ingles EAC3 5.1 AMZN

Ficha técnica

Video trailer de la película

Enlaces de descarga

Rip de Bluray

Descargar Sin Limites (2011) OPEN MATTE Web-DL 1080p Latino




Aportes de DPeliculasHDmega la pass es:dpeliculashdmega.org Aportes de CinemaniaHD la pass es:cinemaniahdd.com

Películas relacionadas

descargar Sin Limites (2011) OPEN MATTE Web-DL 1080p Latino WEBDL 1080p gratis, Sin Limites (2011) OPEN MATTE Web-DL 1080p Latino WEBDL mega 1 link, Sin Limites (2011) OPEN MATTE Web-DL 1080p Latino WEBDL pelicula completa, descargar Sin Limites (2011) OPEN MATTE Web-DL 1080p Latino WEBDL gratis en mega.

Sin Limites (2011) OPEN MATTE Web-DL 1080p Latino pelicula full hd, Sin Limites (2011) OPEN MATTE Web-DL 1080p Latino mega latino, Sin Limites (2011) OPEN MATTE Web-DL 1080p Latino 4k latino, Sin Limites (2011) OPEN MATTE Web-DL 1080p Latino pelicula completa, Sin Limites (2011) OPEN MATTE Web-DL 1080p Latino descargar gratis, descargar Sin Limites (2011) OPEN MATTE Web-DL 1080p Latino pelicula latino, Sin Limites (2011) OPEN MATTE Web-DL 1080p Latino 1 link mega, Sin Limites (2011) OPEN MATTE Web-DL 1080p Latino 1 link google drive, Sin Limites (2011) OPEN MATTE Web-DL 1080p Latino hd 1080p latino.
Comentarios 0