×

¿Problemas para descargar con Mozilla, EDGE? Deshabilita la opción "Abrir vinculos en una pestaña nueva" tal como lo muestra ésta imagen.

Lilo, Lilo, cocodrilo (2022) WEB-DL 1080p Latino

16 vistas

Información de Lilo, Lilo, cocodrilo (2022) WEB-DL 1080p Latino

Datos de la película

  • Calidad: WEBDL
  • Audio: Español Latino AC3 5.1 WEB-DL - Ingles AC3 5.1 WEB-DL
  • Subtitulos: Español Latino SRT- FORZADOS SRT
  • Resolución: 1918x802p
  • Formato: MKV
  • Codec: H.264
  • Encoder: Melkor
  • Mediainfo: Clic para Mostrar Datos Ver
  • Lilo Lilo Cocodrilo (2022) WEB-DL 1080p Latino.mkv
    Format                      : Matroska
    Format version              : Version 4
    File size                   : 6.08 GiB
    Duration                    : 1 h 46 min
    Overall bit rate            : 8 166 kb/s
    Movie name                  : Lyle Lyle Crocodile (2022) CinemaniaHDD.Net
    Encoded date                : UTC 2022-11-25 02:08:51
    Writing application         : mkvmerge v56.1.0 ('My Friend') 64-bit
    Writing library             : libebml v1.4.2 + libmatroska v1.6.4
    Attachments                 : CINEMANIAHD.png

    Video
    ID                          : 1
    Format                      : AVC
    Format/Info                 : Advanced Video Codec
    Format profile              : High@L4
    Format settings             : CABAC / 5 Ref Frames
    Format settings, CABAC      : Yes
    Format settings, Reference  : 5 frames
    Codec ID                    : V_MPEG4/ISO/AVC
    Duration                    : 1 h 46 min
    Bit rate                    : 6 564 kb/s
    Width                       : 1 918 pixels
    Height                      : 802 pixels
    Display aspect ratio        : 2.40:1
    Frame rate mode             : Constant
    Frame rate                  : 23.976 (24000/1001) FPS
    Color space                 : YUV
    Chroma subsampling          : 4:2:0
    Bit depth                   : 8 bits
    Scan type                   : Progressive
    Bits/(Pixel*Frame)          : 0.178
    Stream size                 : 4.89 GiB (80%)
    Title                       : Web HD1080p [CinemaniaHDD]
    Default                     : Yes
    Forced                      : Yes
    Color range                 : Limited
    Color primaries             : BT.709
    Transfer characteristics    : BT.709
    Matrix coefficients         : BT.709

    Audio #1
    ID                          : 2
    Format                      : AC-3
    Format/Info                 : Audio Coding 3
    Commercial name             : Dolby Digital
    Codec ID                    : A_AC3
    Duration                    : 1 h 46 min
    Bit rate mode               : Constant
    Bit rate                    : 448 kb/s
    Channel(s)                  : 6 channels
    Channel layout              : L R C LFE Ls Rs
    Sampling rate               : 48.0 kHz
    Frame rate                  : 31.250 FPS (1536 SPF)
    Compression mode            : Lossy
    Stream size                 : 342 MiB (5%)
    Title                       : Español Latino AC3 [CinemaniaHDD]
    Language                    : Spanish
    Service kind                : Complete Main
    Default                     : Yes
    Forced                      : Yes

    Audio #2
    ID                          : 3
    Format                      : E-AC-3
    Format/Info                 : Enhanced AC-3
    Commercial name             : Dolby Digital Plus
    Codec ID                    : A_EAC3
    Duration                    : 1 h 46 min
    Bit rate mode               : Constant
    Bit rate                    : 384 kb/s
    Channel(s)                  : 6 channels
    Channel layout              : L R C LFE Ls Rs
    Sampling rate               : 48.0 kHz
    Frame rate                  : 31.250 FPS (1536 SPF)
    Compression mode            : Lossy
    Stream size                 : 293 MiB (5%)
    Title                       : Español Latino EAC3 [CinemaniaHDD]
    Language                    : Spanish
    Service kind                : Complete Main
    Default                     : No
    Forced                      : No

    Audio #3
    ID                          : 4
    Format                      : E-AC-3 JOC
    Format/Info                 : Enhanced AC-3 with Joint Object Coding
    Commercial name             : Dolby Digital Plus with Dolby Atmos
    Codec ID                    : A_EAC3
    Duration                    : 1 h 46 min
    Bit rate mode               : Constant
    Bit rate                    : 768 kb/s
    Channel(s)                  : 6 channels
    Channel layout              : L R C LFE Ls Rs
    Sampling rate               : 48.0 kHz
    Frame rate                  : 31.250 FPS (1536 SPF)
    Compression mode            : Lossy
    Stream size                 : 586 MiB (9%)
    Title                       : Ingles [CinemaniaHDD]
    Language                    : English
    Service kind                : Complete Main
    Default                     : No
    Forced                      : No
    Complexity index            : 16
    Number of dynamic objects   : 15
    Bed channel count           : 1 channel
    Bed channel configuration   : LFE

    Text #1
    ID                          : 5
    Format                      : UTF-8
    Codec ID                    : S_TEXT/UTF8
    Codec ID/Info               : UTF-8 Plain Text
    Duration                    : 1 h 39 min
    Bit rate                    : 0 b/s
    Count of elements           : 17
    Stream size                 : 378 Bytes (0%)
    Title                       : Forzados-SRT [CinemaniaHDD]
    Language                    : Spanish
    Default                     : Yes
    Forced                      : Yes

    Text #2
    ID                          : 6
    Format                      : UTF-8
    Codec ID                    : S_TEXT/UTF8
    Codec ID/Info               : UTF-8 Plain Text
    Duration                    : 1 h 39 min
    Bit rate                    : 43 b/s
    Count of elements           : 1163
    Stream size                 : 31.5 KiB (0%)
    Title                       : Español-SRT [CinemaniaHDD]
    Language                    : Spanish
    Default                     : No
    Forced                      : No

    Text #3
    ID                          : 7
    Format                      : UTF-8
    Codec ID                    : S_TEXT/UTF8
    Codec ID/Info               : UTF-8 Plain Text
    Duration                    : 1 h 38 min
    Bit rate                    : 52 b/s
    Count of elements           : 1249
    Stream size                 : 37.8 KiB (0%)
    Title                       : Ingles-SRT [CinemaniaHDD]
    Language                    : English
    Default                     : No
    Forced                      : No

  • Peso: 6.08 GiB

Sinopsis

Descargar Lilo, Lilo, cocodrilo (2022) WEB-DL 1080p Latino. Cuando la familia Primm se muda a Nueva York, su hijo adolescente Josh lucha por adaptarse a su nueva escuela y nuevos amigos. Todo eso cambia cuando descubre a Lilo – un cocodrilo cantante a quien le gusta darse baños, el caviar y la buena música – viviendo en el ático de su nueva casa. Los dos se convierten en mejores amigos, pero cuando la existencia de Lilo se ve amenazada por su malvado vecino Mr. Grumps, los Primm deberán aliarse con el carismático dueño de Lilo, Hector P. Valenti, para mostrar al mundo que la familia puede surgir de los lugares más inesperados y que no hay nada malo con un gran cocodrilo cantante con una personalidad aún mayor.

Ficha técnica

Video trailer de la película

Enlaces de descarga

Rip de Bluray

Descargar Lilo, Lilo, cocodrilo (2022) WEB-DL 1080p Latino




Aportes de DPeliculasHDmega la pass es:dpeliculashdmega.org Aportes de CinemaniaHD la pass es:cinemaniahdd.com
Guardado en : Comedia , Familia , Música

Películas relacionadas

descargar Lilo, Lilo, cocodrilo (2022) WEB-DL 1080p Latino WEBDL 1080p gratis, Lilo, Lilo, cocodrilo (2022) WEB-DL 1080p Latino WEBDL mega 1 link, Lilo, Lilo, cocodrilo (2022) WEB-DL 1080p Latino WEBDL pelicula completa, descargar Lilo, Lilo, cocodrilo (2022) WEB-DL 1080p Latino WEBDL gratis en mega.

Lilo, Lilo, cocodrilo (2022) WEB-DL 1080p Latino pelicula full hd, Lilo, Lilo, cocodrilo (2022) WEB-DL 1080p Latino mega latino, Lilo, Lilo, cocodrilo (2022) WEB-DL 1080p Latino 4k latino, Lilo, Lilo, cocodrilo (2022) WEB-DL 1080p Latino pelicula completa, Lilo, Lilo, cocodrilo (2022) WEB-DL 1080p Latino descargar gratis, descargar Lilo, Lilo, cocodrilo (2022) WEB-DL 1080p Latino pelicula latino, Lilo, Lilo, cocodrilo (2022) WEB-DL 1080p Latino 1 link mega, Lilo, Lilo, cocodrilo (2022) WEB-DL 1080p Latino 1 link google drive, Lilo, Lilo, cocodrilo (2022) WEB-DL 1080p Latino hd 1080p latino.
Comentarios 0