×

¿Problemas para descargar con Mozilla, EDGE? Deshabilita la opción "Abrir vinculos en una pestaña nueva" tal como lo muestra ésta imagen.

Lilo, Lilo, cocodrilo (2022) HD 1080p Latino

46 vistas

Información de Lilo, Lilo, cocodrilo (2022) HD 1080p Latino

Datos de la película

  • Calidad: 1080p
  • Audio: Español Latino AC3 5.1 BLURAY - Ingles AC3 5.1 BLURAY
  • Subtitulos: Español Latino SRT- FORZADOS SRT
  • Resolución: 1920x804p
  • Formato: MKV
  • Codec: H.264
  • Encoder: Melkor
  • Mediainfo: Clic para Mostrar Datos Ver
  • Lilo Lilo Cocodrilo (2022) HD 1080p Latino.mkv
    Format                      : Matroska
    Format version              : Version 4
    File size                   : 3.43 GiB
    Duration                    : 1 h 46 min
    Overall bit rate            : 4 607 kb/s
    Movie name                  : Lyle Lyle Crocodile (2022) CinemaniaHDD.Net
    Encoded date                : UTC 2022-12-12 16:44:57
    Writing application         : mkvmerge v56.1.0 ('My Friend') 64-bit
    Writing library             : libebml v1.4.2 + libmatroska v1.6.4
    Attachments                 : CINEMANIAHD.png

    Video
    ID                          : 1
    Format                      : AVC
    Format/Info                 : Advanced Video Codec
    Format profile              : High@L4.1
    Format settings             : CABAC / 5 Ref Frames
    Format settings, CABAC      : Yes
    Format settings, Reference  : 5 frames
    Codec ID                    : V_MPEG4/ISO/AVC
    Duration                    : 1 h 46 min
    Bit rate                    : 3 500 kb/s
    Width                       : 1 920 pixels
    Height                      : 804 pixels
    Display aspect ratio        : 2.40:1
    Frame rate mode             : Constant
    Frame rate                  : 23.976 (24000/1001) FPS
    Color space                 : YUV
    Chroma subsampling          : 4:2:0
    Bit depth                   : 8 bits
    Scan type                   : Progressive
    Bits/(Pixel*Frame)          : 0.095
    Stream size                 : 2.62 GiB (76%)
    Title                       : HD1080p [CinemaniaHDD]
    Writing library             : x264 core 163 r3059 b684ebe0
    Encoding settings           : cabac=1 / ref=5 / deblock=1:-1:-1 / analyse=0x3:0x133 / me=umh / subme=9 / psy=1 / psy_rd=1.00:0.15 / mixed_ref=1 / me_range=16 / chroma_me=1 / trellis=2 / 8x8dct=1 / cqm=0 / deadzone=21,11 / fast_pskip=1 / chroma_qp_offset=-3 / threads=24 / lookahead_threads=2 / sliced_threads=0 / nr=0 / decimate=1 / interlaced=0 / bluray_compat=0 / constrained_intra=0 / bframes=3 / b_pyramid=2 / b_adapt=2 / b_bias=0 / direct=3 / weightb=1 / open_gop=0 / weightp=2 / keyint=240 / keyint_min=24 / scenecut=40 / intra_refresh=0 / rc_lookahead=60 / rc=abr / mbtree=1 / bitrate=3500 / ratetol=1.0 / qcomp=0.60 / qpmin=0 / qpmax=69 / qpstep=4 / vbv_maxrate=62500 / vbv_bufsize=78125 / nal_hrd=none / filler=0 / ip_ratio=1.40 / aq=1:1.00
    Default                     : Yes
    Forced                      : Yes
    Color range                 : Limited
    Color primaries             : BT.709
    Transfer characteristics    : BT.709
    Matrix coefficients         : BT.709

    Audio #1
    ID                          : 2
    ID in the original source m : 4357 (0x1105)
    Format                      : AC-3
    Format/Info                 : Audio Coding 3
    Commercial name             : Dolby Digital
    Codec ID                    : A_AC3
    Duration                    : 1 h 46 min
    Bit rate mode               : Constant
    Bit rate                    : 640 kb/s
    Channel(s)                  : 6 channels
    Channel layout              : L R C LFE Ls Rs
    Sampling rate               : 48.0 kHz
    Frame rate                  : 31.250 FPS (1536 SPF)
    Compression mode            : Lossy
    Delay relative to video     : 10 ms
    Stream size                 : 488 MiB (14%)
    Title                       : Español Latino [CinemaniaHDD]
    Language                    : Spanish
    Service kind                : Complete Main
    Default                     : Yes
    Forced                      : Yes
    Original source medium      : Blu-ray

    Audio #2
    ID                          : 3
    Format                      : AC-3
    Format/Info                 : Audio Coding 3
    Commercial name             : Dolby Digital
    Codec ID                    : A_AC3
    Duration                    : 1 h 46 min
    Bit rate mode               : Constant
    Bit rate                    : 448 kb/s
    Channel(s)                  : 6 channels
    Channel layout              : L R C LFE Ls Rs
    Sampling rate               : 48.0 kHz
    Frame rate                  : 31.250 FPS (1536 SPF)
    Compression mode            : Lossy
    Delay relative to video     : -5 ms
    Stream size                 : 342 MiB (10%)
    Title                       : Ingles [CinemaniaHDD]
    Language                    : English
    Service kind                : Complete Main
    Default                     : No
    Forced                      : No

    Text #1
    ID                          : 4
    Format                      : UTF-8
    Codec ID                    : S_TEXT/UTF8
    Codec ID/Info               : UTF-8 Plain Text
    Duration                    : 1 h 39 min
    Bit rate                    : 0 b/s
    Count of elements           : 17
    Stream size                 : 378 Bytes (0%)
    Title                       : Forzados-SRT [CinemaniaHDD]
    Language                    : Spanish
    Default                     : Yes
    Forced                      : Yes

    Text #2
    ID                          : 5
    Format                      : UTF-8
    Codec ID                    : S_TEXT/UTF8
    Codec ID/Info               : UTF-8 Plain Text
    Duration                    : 1 h 39 min
    Bit rate                    : 43 b/s
    Count of elements           : 1163
    Stream size                 : 31.5 KiB (0%)
    Title                       : Español-SRT [CinemaniaHDD]
    Language                    : Spanish
    Default                     : No
    Forced                      : No

    Menu
    00:00:00.000                : Chapter 01
    00:05:05.930                : Chapter 02
    00:11:08.376                : Chapter 03
    00:17:56.408                : Chapter 04
    00:23:42.379                : Chapter 05
    00:29:58.004                : Chapter 06
    00:38:40.735                : Chapter 07
    00:46:31.872                : Chapter 08
    00:52:39.197                : Chapter 09
    00:57:19.602                : Chapter 10
    01:01:14.712                : Chapter 11
    01:05:06.027                : Chapter 12
    01:10:06.368                : Chapter 13
    01:12:49.782                : Chapter 14
    01:17:49.665                : Chapter 15
    01:22:45.835                : Chapter 16

  • Peso: 3.43 GiB

Sinopsis

Descargar Lilo, Lilo, cocodrilo (2022) HD 1080p Latino. Cuando la familia Primm se muda a Nueva York, su hijo adolescente Josh lucha por adaptarse a su nueva escuela y nuevos amigos. Todo eso cambia cuando descubre a Lilo – un cocodrilo cantante a quien le gusta darse baños, el caviar y la buena música – viviendo en el ático de su nueva casa. Los dos se convierten en mejores amigos, pero cuando la existencia de Lilo se ve amenazada por su malvado vecino Mr. Grumps, los Primm deberán aliarse con el carismático dueño de Lilo, Hector P. Valenti, para mostrar al mundo que la familia puede surgir de los lugares más inesperados y que no hay nada malo con un gran cocodrilo cantante con una personalidad aún mayor.

Ficha técnica

Video trailer de la película

Enlaces de descarga

Rip de Bluray

Descargar Lilo, Lilo, cocodrilo (2022) HD 1080p Latino




Aportes de DPeliculasHDmega la pass es:dpeliculashdmega.org Aportes de CinemaniaHD la pass es:cinemaniahdd.com
Guardado en : Comedia , Familia , HD 1080p , Música

Películas relacionadas

  • Corazón de tinta (2008) Full HD 1080p Latino

    Corazón de tinta (2008) Full HD 1080p Latino

    2008
    Corazón de tinta (2008) Full HD 1080p Latino

    1h 46m 2008

    Descargar Corazón de tinta (2008) Full HD 1080p Latino. Mortimer “Mo” Folchart y su hija de 12 años,...

    Director: Sharon Mansfield

    Género: Aventura

    Actores: Terry Cavanagh

  • Corazón de tinta (2008) REMUX 1080p Latino

    Corazón de tinta (2008) REMUX 1080p Latino

    2008
    Corazón de tinta (2008) REMUX 1080p Latino

    1h 46m 2008

    Descargar Corazón de tinta (2008) REMUX 1080p Latino. Mortimer “Mo” Folchart y su hija de 12 años,...

    Director: Sharon Mansfield

    Género: Aventura

    Actores: Tereza Srbová

  • Juego de espías (2001) 1080p Latino

    Juego de espías (2001) 1080p Latino

    2001
    Juego de espías (2001) 1080p Latino

    2h 6m 2001

    Descargar Juego de espías (2001) 1080p Latino. Corre el año 1991, y al veterano agente de la CIA Nathan...

    Director: Tony Scott

    Género: Acción

    Actores: Zsolt Zágoni

  • Hombre de familia (2000) REMUX 1080p Latino

    Hombre de familia (2000) REMUX 1080p Latino

    2000
    Hombre de familia (2000) REMUX 1080p Latino

    2h 1m 2000

    Descargar Hombre de familia (2000) REMUX 1080p Latino. Jack Campbell es un egocéntrico broker de Wall...

    Director: Robert Schroer

    Género: Comedia

    Actores: Wass Stevens

descargar Lilo, Lilo, cocodrilo (2022) HD 1080p Latino 1080p 1080p gratis, Lilo, Lilo, cocodrilo (2022) HD 1080p Latino 1080p mega 1 link, Lilo, Lilo, cocodrilo (2022) HD 1080p Latino 1080p pelicula completa, descargar Lilo, Lilo, cocodrilo (2022) HD 1080p Latino 1080p gratis en mega.

Lilo, Lilo, cocodrilo (2022) HD 1080p Latino pelicula full hd, Lilo, Lilo, cocodrilo (2022) HD 1080p Latino mega latino, Lilo, Lilo, cocodrilo (2022) HD 1080p Latino 4k latino, Lilo, Lilo, cocodrilo (2022) HD 1080p Latino pelicula completa, Lilo, Lilo, cocodrilo (2022) HD 1080p Latino descargar gratis, descargar Lilo, Lilo, cocodrilo (2022) HD 1080p Latino pelicula latino, Lilo, Lilo, cocodrilo (2022) HD 1080p Latino 1 link mega, Lilo, Lilo, cocodrilo (2022) HD 1080p Latino 1 link google drive, Lilo, Lilo, cocodrilo (2022) HD 1080p Latino hd 1080p latino.
Comentarios 0