×

¿Problemas para descargar con Mozilla, EDGE? Deshabilita la opción "Abrir vinculos en una pestaña nueva" tal como lo muestra ésta imagen.

Lightyear (2022) D+ IMAX Web-DL 1080p Latino

846 vistas

Información de Lightyear (2022) D+ IMAX Web-DL 1080p Latino

Datos de la película

  • Calidad: WEBDL
  • Audio: Se especifica abajo de la Sinopsis
  • Subtitulos: Español Latino SRT- FORZADOS SRT
  • Resolución: 1920x1080p
  • Formato: MKV
  • Codec: H.264
  • Encoder: Melkor
  • Mediainfo: Clic para Mostrar Datos Ver
  • Lightyear (2022) D+ IMAX WebDL 1080p Latino.mkv
    Format                      : Matroska
    Format version              : Version 4
    File size                   : 6.43 GiB
    Duration                    : 1 h 45 min
    Overall bit rate mode       : Variable
    Overall bit rate            : 8 761 kb/s
    Movie name                  : Lightyear (2022) CinemaniaHDD.Net
    Encoded date                : UTC 2022-08-03 15:02:48
    Writing application         : mkvmerge v56.1.0 ('My Friend') 64-bit
    Writing library             : libebml v1.4.2 + libmatroska v1.6.4
    Attachments                 : CINEMANIAHD.png

    Video
    ID                          : 1
    Format                      : AVC
    Format/Info                 : Advanced Video Codec
    Format profile              : High@L4
    Format settings             : CABAC / 4 Ref Frames
    Format settings, CABAC      : Yes
    Format settings, Reference  : 4 frames
    Codec ID                    : V_MPEG4/ISO/AVC
    Duration                    : 1 h 45 min
    Bit rate mode               : Variable
    Bit rate                    : 6 966 kb/s
    Maximum bit rate            : 12.7 Mb/s
    Width                       : 1 920 pixels
    Height                      : 1 080 pixels
    Display aspect ratio        : 16:9
    Frame rate mode             : Constant
    Frame rate                  : 23.976 (24000/1001) FPS
    Color space                 : YUV
    Chroma subsampling          : 4:2:0
    Bit depth                   : 8 bits
    Scan type                   : Progressive
    Bits/(Pixel*Frame)          : 0.140
    Stream size                 : 5.11 GiB (80%)
    Title                       : Web HD1080p [CinemaniaHDD]
    Language                    : English
    Default                     : Yes
    Forced                      : Yes
    Color range                 : Limited
    Color primaries             : BT.709
    Transfer characteristics    : BT.709
    Matrix coefficients         : BT.709

    Audio #1
    ID                          : 2
    Format                      : AC-3
    Format/Info                 : Audio Coding 3
    Commercial name             : Dolby Digital
    Codec ID                    : A_AC3
    Duration                    : 1 h 45 min
    Bit rate mode               : Constant
    Bit rate                    : 384 kb/s
    Channel(s)                  : 6 channels
    Channel layout              : L R C LFE Ls Rs
    Sampling rate               : 48.0 kHz
    Frame rate                  : 31.250 FPS (1536 SPF)
    Compression mode            : Lossy
    Stream size                 : 289 MiB (4%)
    Title                       : Español Latino AC3 [CinemaniaHDD]
    Language                    : Spanish
    Service kind                : Complete Main
    Default                     : Yes
    Forced                      : Yes

    Audio #2
    ID                          : 3
    Format                      : E-AC-3
    Format/Info                 : Enhanced AC-3
    Commercial name             : Dolby Digital Plus
    Codec ID                    : A_EAC3
    Duration                    : 1 h 45 min
    Bit rate mode               : Constant
    Bit rate                    : 640 kb/s
    Channel(s)                  : 8 channels
    Channel layout              : L R C LFE Ls Rs Lb Rb
    Sampling rate               : 48.0 kHz
    Frame rate                  : 31.250 FPS (1536 SPF)
    Compression mode            : Lossy
    Stream size                 : 481 MiB (7%)
    Title                       : Español Latino EAC3 [CinemaniaHDD]
    Language                    : Spanish
    Service kind                : Complete Main
    Default                     : No
    Forced                      : No

    Audio #3
    ID                          : 4
    Format                      : E-AC-3 JOC
    Format/Info                 : Enhanced AC-3 with Joint Object Coding
    Commercial name             : Dolby Digital Plus with Dolby Atmos
    Codec ID                    : A_EAC3
    Duration                    : 1 h 45 min
    Bit rate mode               : Constant
    Bit rate                    : 768 kb/s
    Channel(s)                  : 6 channels
    Channel layout              : L R C LFE Ls Rs
    Sampling rate               : 48.0 kHz
    Frame rate                  : 31.250 FPS (1536 SPF)
    Compression mode            : Lossy
    Stream size                 : 577 MiB (9%)
    Title                       : Ingles [CinemaniaHDD]
    Language                    : English
    Service kind                : Complete Main
    Default                     : No
    Forced                      : No
    Complexity index            : 16
    Number of dynamic objects   : 15
    Bed channel count           : 1 channel
    Bed channel configuration   : LFE

    Text #1
    ID                          : 5
    Format                      : UTF-8
    Codec ID                    : S_TEXT/UTF8
    Codec ID/Info               : UTF-8 Plain Text
    Duration                    : 1 h 32 min
    Bit rate                    : 1 b/s
    Count of elements           : 32
    Stream size                 : 886 Bytes (0%)
    Title                       : Forzados-SRT [CinemaniaHDD]
    Language                    : Spanish
    Default                     : Yes
    Forced                      : Yes

    Text #2
    ID                          : 6
    Format                      : UTF-8
    Codec ID                    : S_TEXT/UTF8
    Codec ID/Info               : UTF-8 Plain Text
    Duration                    : 1 h 43 min
    Bit rate                    : 64 b/s
    Count of elements           : 1577
    Stream size                 : 48.8 KiB (0%)
    Title                       : Español-SRT [CinemaniaHDD]
    Language                    : Spanish
    Default                     : No
    Forced                      : No

    Text #3
    ID                          : 7
    Format                      : UTF-8
    Codec ID                    : S_TEXT/UTF8
    Codec ID/Info               : UTF-8 Plain Text
    Duration                    : 1 h 42 min
    Bit rate                    : 60 b/s
    Count of elements           : 1545
    Stream size                 : 45.6 KiB (0%)
    Title                       : Ingles-SRT [CinemaniaHDD]
    Language                    : English
    Default                     : No
    Forced                      : No

  • Peso: 6.43 GiB

Sinopsis

Descargar Lightyear (2022) D+ IMAX Web-DL 1080p Latino. Atrapado en un planeta hostil a 4,2 millones de años luz de la Tierra junto a su comandante y su tripulación, Buzz Lightyear intenta encontrar la manera de volver a casa a través del espacio y el tiempo. Pero la llegada de Zurg, una presencia imponente con un ejército de robots despiadados y una agenda misteriosa, complica aún más las cosas y pone en peligro la misión.

Español Latino EAC3 7.1 & AC3 5.1 Web – Ingles EAC3 JOC 5.1 Web

Ficha técnica

Video trailer de la película

Enlaces de descarga

Rip de Bluray

Descargar Lightyear (2022) D+ IMAX Web-DL 1080p Latino




Aportes de DPeliculasHDmega la pass es:dpeliculashdmega.org Aportes de CinemaniaHD la pass es:cinemaniahdd.com

Películas relacionadas

Lightyear (2022) D+ IMAX Web-DL 1080p Latino pelicula full hd, Lightyear (2022) D+ IMAX Web-DL 1080p Latino mega latino, Lightyear (2022) D+ IMAX Web-DL 1080p Latino 4k latino, Lightyear (2022) D+ IMAX Web-DL 1080p Latino pelicula completa, Lightyear (2022) D+ IMAX Web-DL 1080p Latino descargar gratis, descargar Lightyear (2022) D+ IMAX Web-DL 1080p Latino pelicula latino, Lightyear (2022) D+ IMAX Web-DL 1080p Latino 1 link mega, Lightyear (2022) D+ IMAX Web-DL 1080p Latino 1 link google drive, Lightyear (2022) D+ IMAX Web-DL 1080p Latino hd 1080p latino.
Comentarios 0