×

¿Problemas para descargar con Mozilla, EDGE? Deshabilita la opción "Abrir vinculos en una pestaña nueva" tal como lo muestra ésta imagen.

Lightyear (2022) WEB-DL 1080p Latino

911 vistas

Información de Lightyear (2022) WEB-DL 1080p Latino

Datos de la película

  • Calidad: 1080p
  • Audio: Español Latino AC3 5.1 WEB-DL - Ingles AC3 5.1 WEB-DL
  • Subtitulos: Español Latino SRT - Ingles SRT
  • Resolución: 1920x804
  • Formato: MKV
  • Codec: H.264
  • Encoder: cinemaniahdd
  • Mediainfo: Clic para Mostrar Datos Ver
  • Lightyear (2022) WEB-DL 1080p Latino [CNMNHDD]t.mkv
    Format                      : Matroska
    Format version              : Version 4
    File size                   : 8.59 GiB
    Duration                    : 1 h 45 min
    Overall bit rate            : 11.7 Mb/s
    Movie name                  : Lightyear (2022) [1008p] - CinemaniaHDD.Net
    Encoded date                : UTC 2022-08-02 22:39:40
    Writing application         : mkvmerge v56.1.0 ('My Friend') 64-bit
    Writing library             : libebml v1.4.2 + libmatroska v1.6.4

    Video
    ID                          : 1
    Format                      : AVC
    Format/Info                 : Advanced Video Codec
    Format profile              : High@L4
    Format settings             : CABAC / 5 Ref Frames
    Format settings, CABAC      : Yes
    Format settings, Reference  : 5 frames
    Codec ID                    : V_MPEG4/ISO/AVC
    Duration                    : 1 h 45 min
    Bit rate                    : 9 907 kb/s
    Width                       : 1 920 pixels
    Height                      : 804 pixels
    Display aspect ratio        : 2.40:1
    Frame rate mode             : Constant
    Frame rate                  : 23.976 (24000/1001) FPS
    Color space                 : YUV
    Chroma subsampling          : 4:2:0
    Bit depth                   : 8 bits
    Scan type                   : Progressive
    Bits/(Pixel*Frame)          : 0.268
    Stream size                 : 7.27 GiB (85%)
    Title                       : CinemaniaHDD
    Default                     : Yes
    Forced                      : No
    Color range                 : Limited
    Color primaries             : BT.709
    Transfer characteristics    : BT.709
    Matrix coefficients         : BT.709

    Audio #1
    ID                          : 2
    Format                      : AC-3
    Format/Info                 : Audio Coding 3
    Commercial name             : Dolby Digital
    Codec ID                    : A_AC3
    Duration                    : 1 h 45 min
    Bit rate mode               : Constant
    Bit rate                    : 384 kb/s
    Channel(s)                  : 6 channels
    Channel layout              : L R C LFE Ls Rs
    Sampling rate               : 48.0 kHz
    Frame rate                  : 31.250 FPS (1536 SPF)
    Compression mode            : Lossy
    Stream size                 : 289 MiB (3%)
    Title                       : Español latino [CinemaniaHDD]
    Language                    : Spanish
    Service kind                : Complete Main
    Default                     : Yes
    Forced                      : No

    Audio #2
    ID                          : 3
    Format                      : E-AC-3
    Format/Info                 : Enhanced AC-3
    Commercial name             : Dolby Digital Plus
    Codec ID                    : A_EAC3
    Duration                    : 1 h 45 min
    Bit rate mode               : Constant
    Bit rate                    : 640 kb/s
    Channel(s)                  : 8 channels
    Channel layout              : L R C LFE Ls Rs Lb Rb
    Sampling rate               : 48.0 kHz
    Frame rate                  : 31.250 FPS (1536 SPF)
    Compression mode            : Lossy
    Stream size                 : 481 MiB (5%)
    Title                       : Español latino / E-AC3 [CinemaniaHDD]
    Language                    : Spanish
    Service kind                : Complete Main
    Default                     : No
    Forced                      : No

    Audio #3
    ID                          : 4
    Format                      : E-AC-3 JOC
    Format/Info                 : Enhanced AC-3 with Joint Object Coding
    Commercial name             : Dolby Digital Plus with Dolby Atmos
    Codec ID                    : A_EAC3
    Duration                    : 1 h 45 min
    Bit rate mode               : Constant
    Bit rate                    : 768 kb/s
    Channel(s)                  : 6 channels
    Channel layout              : L R C LFE Ls Rs
    Sampling rate               : 48.0 kHz
    Frame rate                  : 31.250 FPS (1536 SPF)
    Compression mode            : Lossy
    Stream size                 : 577 MiB (7%)
    Title                       : Inglés [CinemaniaHDD]
    Language                    : English
    Service kind                : Complete Main
    Default                     : No
    Forced                      : No
    Complexity index            : 16
    Number of dynamic objects   : 15
    Bed channel count           : 1 channel
    Bed channel configuration   : LFE

    Text #1
    ID                          : 5
    Format                      : UTF-8
    Codec ID                    : S_TEXT/UTF8
    Codec ID/Info               : UTF-8 Plain Text
    Duration                    : 1 h 32 min
    Bit rate                    : 1 b/s
    Count of elements           : 32
    Stream size                 : 886 Bytes (0%)
    Title                       : Forzados [CinemaniaHDD]
    Language                    : Spanish
    Default                     : Yes
    Forced                      : Yes

    Text #2
    ID                          : 6
    Format                      : UTF-8
    Codec ID                    : S_TEXT/UTF8
    Codec ID/Info               : UTF-8 Plain Text
    Duration                    : 1 h 43 min
    Bit rate                    : 64 b/s
    Count of elements           : 1577
    Stream size                 : 48.8 KiB (0%)
    Title                       : Español latino [CinemaniaHDD]
    Language                    : Spanish
    Default                     : No
    Forced                      : No

    Text #3
    ID                          : 7
    Format                      : UTF-8
    Codec ID                    : S_TEXT/UTF8
    Codec ID/Info               : UTF-8 Plain Text
    Duration                    : 1 h 42 min
    Bit rate                    : 64 b/s
    Count of elements           : 1546
    Stream size                 : 48.2 KiB (0%)
    Title                       : Inglés [CinemaniaHDD]
    Language                    : English
    Default                     : No
    Forced                      : No

    Menu
    00:00:00.000                : Meet Lightyear
    00:04:43.742                : Hostile Planet
    00:06:48.324                : Big Mistake
    00:08:13.118                : Regroup
    00:09:33.740                : Pre Flight
    00:11:58.385                : First Mission
    00:15:27.177                : Time Dilation
    00:18:05.043                : Sox The Cat
    00:20:40.699                : Life Is Flying By
    00:22:34.396                : Goodbye
    00:24:37.018                : Shutdown
    00:25:41.875                : Breaking Point
    00:27:01.246                : Steal The Ship
    00:30:53.269                : Hyperspeed
    00:32:02.839                : Abandoned Planet
    00:33:32.929                : Zurg Awakens
    00:34:23.313                : Not My Grandma
    00:36:56.800                : A Team
    00:39:14.187                : Robot Attack
    00:41:55.598                : The Junior Patrol
    00:45:29.229                : Bug's Death
    00:50:28.945                : Dogfight
    00:51:37.931                : The Dark Side
    00:54:23.096                : Capture Cones
    00:57:55.350                : Snack Time
    01:02:11.439                : Zurg Attacks
    01:04:26.324                : Escape
    01:07:35.847                : Stolen
    01:09:15.697                : Face To Face
    01:10:32.774                : Stranded
    01:11:25.577                : Zurg's Pitch
    01:15:37.829                : A New Hope
    01:16:45.397                : Offer Rejected
    01:17:44.080                : Final Countdown
    01:25:18.993                : Sacrifice
    01:27:10.689                : Free Fall
    01:29:00.965                : Burnside's Back
    01:30:42.192                : Space Rangers
    01:33:45.625                : Laser Shield Credits
    01:36:02.387                : Credit Crawl
    01:43:35.507                : Zurg Returns

     

  • Peso: 8.59 GiB

Sinopsis

Atrapado en un planeta hostil a 4,2 millones de años luz de la Tierra junto a su comandante y su tripulación, Buzz Lightyear intenta encontrar la manera de volver a casa a través del espacio y el tiempo. Pero la llegada de Zurg, una presencia imponente con un ejército de robots despiadados y una agenda misteriosa, complica aún más las cosas y pone en peligro la misión.

Ficha técnica

Video trailer de la película

Enlaces de descarga

Rip de Bluray

Descargar Lightyear (2022) WEB-DL 1080p Latino




Aportes de DPeliculasHDmega la pass es:dpeliculashdmega.org Aportes de CinemaniaHD la pass es:cinemaniahdd.com

Películas relacionadas

descargar Lightyear (2022) WEB-DL 1080p Latino 1080p 1080p gratis, Lightyear (2022) WEB-DL 1080p Latino 1080p mega 1 link, Lightyear (2022) WEB-DL 1080p Latino 1080p pelicula completa, descargar Lightyear (2022) WEB-DL 1080p Latino 1080p gratis en mega.

Lightyear (2022) WEB-DL 1080p Latino pelicula full hd, Lightyear (2022) WEB-DL 1080p Latino mega latino, Lightyear (2022) WEB-DL 1080p Latino 4k latino, Lightyear (2022) WEB-DL 1080p Latino pelicula completa, Lightyear (2022) WEB-DL 1080p Latino descargar gratis, descargar Lightyear (2022) WEB-DL 1080p Latino pelicula latino, Lightyear (2022) WEB-DL 1080p Latino 1 link mega, Lightyear (2022) WEB-DL 1080p Latino 1 link google drive, Lightyear (2022) WEB-DL 1080p Latino hd 1080p latino.
Comentarios 0