×

¿Problemas para descargar con Mozilla, EDGE? Deshabilita la opción "Abrir vinculos en una pestaña nueva" tal como lo muestra ésta imagen.

Lightyear (2022) REMUX 1080p Latino

49 vistas

Información de Lightyear (2022) REMUX 1080p Latino

Datos de la película

  • Calidad: Full 1080p
  • Audio: Se especifica abajo de la Sinopsis
  • Subtitulos: Español PGS - Ingles PGS
  • Resolución: 1920x1080p
  • Formato: MKV
  • Codec: H.264
  • Encoder: Melkor
  • Mediainfo: Clic para Mostrar Datos Ver
  • Lightyear (2022) REMUX 1080p Latino.mkv
    Format                      : Matroska
    Format version              : Version 4
    File size                   : 20.1 GiB
    Duration                    : 1 h 45 min
    Overall bit rate mode       : Variable
    Overall bit rate            : 27.4 Mb/s
    Movie name                  : Lightyear (2022) CinemaniaHDD.Net
    Encoded date                : UTC 2022-08-23 15:42:19
    Writing application         : mkvmerge v56.1.0 ('My Friend') 64-bit
    Writing library             : libebml v1.4.2 + libmatroska v1.6.4
    Attachments                 : CINEMANIAHD.png

    Video
    ID                          : 1
    Format                      : AVC
    Format/Info                 : Advanced Video Codec
    Format profile              : High@L4.1
    Format settings             : CABAC / 4 Ref Frames
    Format settings, CABAC      : Yes
    Format settings, Reference  : 4 frames
    Codec ID                    : V_MPEG4/ISO/AVC
    Duration                    : 1 h 45 min
    Bit rate mode               : Variable
    Bit rate                    : 21.6 Mb/s
    Maximum bit rate            : 35.6 Mb/s
    Width                       : 1 920 pixels
    Height                      : 1 080 pixels
    Display aspect ratio        : 16:9
    Frame rate mode             : Constant
    Frame rate                  : 23.976 (24000/1001) FPS
    Color space                 : YUV
    Chroma subsampling          : 4:2:0
    Bit depth                   : 8 bits
    Scan type                   : Progressive
    Bits/(Pixel*Frame)          : 0.434
    Stream size                 : 15.8 GiB (79%)
    Title                       : REMUX HD1080p [CinemaniaHDD]
    Language                    : English
    Default                     : Yes
    Forced                      : Yes

    Audio #1
    ID                          : 2
    Format                      : AC-3
    Format/Info                 : Audio Coding 3
    Commercial name             : Dolby Digital
    Codec ID                    : A_AC3
    Duration                    : 1 h 45 min
    Bit rate mode               : Constant
    Bit rate                    : 384 kb/s
    Channel(s)                  : 6 channels
    Channel layout              : L R C LFE Ls Rs
    Sampling rate               : 48.0 kHz
    Frame rate                  : 31.250 FPS (1536 SPF)
    Compression mode            : Lossy
    Stream size                 : 289 MiB (1%)
    Title                       : Español Latino AC3 [CinemaniaHDD]
    Language                    : Spanish
    Service kind                : Complete Main
    Default                     : Yes
    Forced                      : Yes

    Audio #2
    ID                          : 3
    Format                      : E-AC-3
    Format/Info                 : Enhanced AC-3
    Commercial name             : Dolby Digital Plus
    Codec ID                    : A_EAC3
    Duration                    : 1 h 45 min
    Bit rate mode               : Constant
    Bit rate                    : 640 kb/s
    Channel(s)                  : 8 channels
    Channel layout              : L R C LFE Ls Rs Lb Rb
    Sampling rate               : 48.0 kHz
    Frame rate                  : 31.250 FPS (1536 SPF)
    Compression mode            : Lossy
    Stream size                 : 481 MiB (2%)
    Title                       : Español Latino EAC3 [CinemaniaHDD]
    Language                    : Spanish
    Service kind                : Complete Main
    Default                     : No
    Forced                      : No

    Audio #3
    ID                          : 4
    Format                      : DTS XLL
    Format/Info                 : Digital Theater Systems
    Commercial name             : DTS-HD Master Audio
    Codec ID                    : A_DTS
    Duration                    : 1 h 45 min
    Bit rate mode               : Variable
    Bit rate                    : 4 821 kb/s
    Channel(s)                  : 8 channels
    Channel layout              : C L R LFE Lb Rb Lss Rss
    Sampling rate               : 48.0 kHz
    Frame rate                  : 93.750 FPS (512 SPF)
    Bit depth                   : 24 bits
    Compression mode            : Lossless
    Stream size                 : 3.54 GiB (18%)
    Title                       : Ingles [CinemaniaHDD]
    Language                    : English
    Default                     : No
    Forced                      : No

    Text #1
    ID                          : 5
    Format                      : PGS
    Muxing mode                 : zlib
    Codec ID                    : S_HDMV/PGS
    Codec ID/Info               : Picture based subtitle format used on BDs/HD-DVDs
    Duration                    : 1 h 44 min
    Bit rate                    : 35.4 kb/s
    Count of elements           : 3152
    Stream size                 : 26.5 MiB (0%)
    Title                       : Español-PGS [CinemaniaHDD]
    Language                    : Spanish
    Default                     : No
    Forced                      : No

    Text #2
    ID                          : 6
    Format                      : PGS
    Muxing mode                 : zlib
    Codec ID                    : S_HDMV/PGS
    Codec ID/Info               : Picture based subtitle format used on BDs/HD-DVDs
    Duration                    : 1 h 44 min
    Bit rate                    : 51.9 kb/s
    Count of elements           : 4154
    Stream size                 : 38.9 MiB (0%)
    Title                       : Ingles-PGS [CinemaniaHDD]
    Language                    : English
    Default                     : No
    Forced                      : No

    Text #3
    ID                          : 7
    Format                      : UTF-8
    Codec ID                    : S_TEXT/UTF8
    Codec ID/Info               : UTF-8 Plain Text
    Duration                    : 1 h 32 min
    Bit rate                    : 1 b/s
    Count of elements           : 32
    Stream size                 : 886 Bytes (0%)
    Title                       : Forzados-SRT [CinemaniaHDD]
    Language                    : Spanish
    Default                     : Yes
    Forced                      : Yes

    Text #4
    ID                          : 8
    Format                      : UTF-8
    Codec ID                    : S_TEXT/UTF8
    Codec ID/Info               : UTF-8 Plain Text
    Duration                    : 1 h 43 min
    Bit rate                    : 64 b/s
    Count of elements           : 1577
    Stream size                 : 48.8 KiB (0%)
    Title                       : Español-SRT [CinemaniaHDD]
    Language                    : Spanish
    Default                     : No
    Forced                      : No

    Menu
    00:00:00.000                : Chapter 1
    00:04:43.742                : Chapter 2
    00:06:48.324                : Chapter 3
    00:08:13.118                : Chapter 4
    00:09:33.740                : Chapter 5
    00:11:58.384                : Chapter 6
    00:15:27.176                : Chapter 7
    00:18:05.042                : Chapter 8
    00:20:40.698                : Chapter 9
    00:22:34.394                : Chapter 10
    00:24:37.017                : Chapter 11
    00:25:41.873                : Chapter 12
    00:27:01.244                : Chapter 13
    00:30:53.268                : Chapter 14
    00:32:02.837                : Chapter 15
    00:33:32.927                : Chapter 16
    00:34:23.311                : Chapter 17
    00:36:56.798                : Chapter 18
    00:39:14.185                : Chapter 19
    00:41:55.596                : Chapter 20
    00:45:29.226                : Chapter 21
    00:50:28.942                : Chapter 22
    00:51:37.928                : Chapter 23
    00:54:23.093                : Chapter 24
    00:57:55.346                : Chapter 25
    01:02:11.436                : Chapter 26
    01:04:26.320                : Chapter 27
    01:07:35.843                : Chapter 28
    01:09:15.693                : Chapter 29
    01:10:32.770                : Chapter 30
    01:11:25.572                : Chapter 31
    01:15:37.824                : Chapter 32
    01:16:45.392                : Chapter 33
    01:17:44.076                : Chapter 34
    01:25:18.988                : Chapter 35
    01:27:10.683                : Chapter 36
    01:29:00.960                : Chapter 37
    01:30:42.186                : Chapter 38
    01:33:45.619                : Chapter 39
    01:36:02.381                : Chapter 40
    01:43:35.500                : Chapter 41

  • Peso: 20.1 GiB

Sinopsis

Descargar Lightyear (2022) REMUX 1080p Latino. Atrapado en un planeta hostil a 4,2 millones de años luz de la Tierra junto a su comandante y su tripulación, Buzz Lightyear intenta encontrar la manera de volver a casa a través del espacio y el tiempo. Pero la llegada de Zurg, una presencia imponente con un ejército de robots despiadados y una agenda misteriosa, complica aún más las cosas y pone en peligro la misión.

Español Latino EAC3 7.1 & AC3 5.1 Web – Ingles DTS-HD 7.1 BD

Ficha técnica

Video trailer de la película

Enlaces de descarga

Rip de Bluray

Descargar Lightyear (2022) REMUX 1080p Latino




Aportes de DPeliculasHDmega la pass es:dpeliculashdmega.org Aportes de CinemaniaHD la pass es:cinemaniahdd.com

Películas relacionadas

descargar Lightyear (2022) REMUX 1080p Latino Full 1080p 1080p gratis, Lightyear (2022) REMUX 1080p Latino Full 1080p mega 1 link, Lightyear (2022) REMUX 1080p Latino Full 1080p pelicula completa, descargar Lightyear (2022) REMUX 1080p Latino Full 1080p gratis en mega.

Lightyear (2022) REMUX 1080p Latino pelicula full hd, Lightyear (2022) REMUX 1080p Latino mega latino, Lightyear (2022) REMUX 1080p Latino 4k latino, Lightyear (2022) REMUX 1080p Latino pelicula completa, Lightyear (2022) REMUX 1080p Latino descargar gratis, descargar Lightyear (2022) REMUX 1080p Latino pelicula latino, Lightyear (2022) REMUX 1080p Latino 1 link mega, Lightyear (2022) REMUX 1080p Latino 1 link google drive, Lightyear (2022) REMUX 1080p Latino hd 1080p latino.
Comentarios 0