×

¿Problemas para descargar con Mozilla, EDGE? Deshabilita la opción "Abrir vinculos en una pestaña nueva" tal como lo muestra ésta imagen.

Lightyear (2022) HD 1080p Latino

58 vistas

Información de Lightyear (2022) HD 1080p Latino

Datos de la película

  • Calidad: 1080p
  • Audio: Español Latino AC3 5.1 WEB-DL - Ingles AC3 5.1 BLURAY
  • Subtitulos: Español Latino SRT- FORZADOS SRT
  • Resolución: 1920x804p
  • Formato: MKV
  • Codec: H.264
  • Encoder: Melkor
  • Mediainfo: Clic para Mostrar Datos Ver
  • Lightyear (2022) HD 1080p Latino.mkv
    Format                      : Matroska
    Format version              : Version 4
    File size                   : 3.17 GiB
    Duration                    : 1 h 45 min
    Overall bit rate            : 4 313 kb/s
    Movie name                  : Lightyear (2022) CinemaniaHDD.Net
    Encoded date                : UTC 2022-08-23 07:34:17
    Writing application         : mkvmerge v56.1.0 ('My Friend') 64-bit
    Writing library             : libebml v1.4.2 + libmatroska v1.6.4
    Attachments                 : CINEMANIAHD.png

    Video
    ID                          : 1
    Format                      : AVC
    Format/Info                 : Advanced Video Codec
    Format profile              : High@L4.1
    Format settings             : CABAC / 5 Ref Frames
    Format settings, CABAC      : Yes
    Format settings, Reference  : 5 frames
    Codec ID                    : V_MPEG4/ISO/AVC
    Duration                    : 1 h 45 min
    Bit rate                    : 3 500 kb/s
    Width                       : 1 920 pixels
    Height                      : 804 pixels
    Display aspect ratio        : 2.40:1
    Frame rate mode             : Constant
    Frame rate                  : 23.976 (24000/1001) FPS
    Color space                 : YUV
    Chroma subsampling          : 4:2:0
    Bit depth                   : 8 bits
    Scan type                   : Progressive
    Bits/(Pixel*Frame)          : 0.095
    Stream size                 : 2.55 GiB (81%)
    Title                       : HD1080p [CinemaniaHDD]
    Writing library             : x264 core 163 r3059 b684ebe0
    Encoding settings           : cabac=1 / ref=5 / deblock=1:1:1 / analyse=0x3:0x133 / me=umh / subme=9 / psy=1 / psy_rd=0.40:0.00 / mixed_ref=1 / me_range=16 / chroma_me=1 / trellis=2 / 8x8dct=1 / cqm=0 / deadzone=21,11 / fast_pskip=1 / chroma_qp_offset=-2 / threads=24 / lookahead_threads=2 / sliced_threads=0 / nr=0 / decimate=1 / interlaced=0 / bluray_compat=0 / constrained_intra=0 / bframes=5 / b_pyramid=2 / b_adapt=2 / b_bias=0 / direct=3 / weightb=1 / open_gop=0 / weightp=2 / keyint=240 / keyint_min=24 / scenecut=40 / intra_refresh=0 / rc_lookahead=60 / rc=abr / mbtree=1 / bitrate=3500 / ratetol=1.0 / qcomp=0.60 / qpmin=0 / qpmax=69 / qpstep=4 / vbv_maxrate=62500 / vbv_bufsize=78125 / nal_hrd=none / filler=0 / ip_ratio=1.40 / aq=1:0.60
    Default                     : Yes
    Forced                      : Yes
    Color range                 : Limited
    Color primaries             : BT.709
    Transfer characteristics    : BT.709
    Matrix coefficients         : BT.709

    Audio #1
    ID                          : 2
    Format                      : AC-3
    Format/Info                 : Audio Coding 3
    Commercial name             : Dolby Digital
    Codec ID                    : A_AC3
    Duration                    : 1 h 45 min
    Bit rate mode               : Constant
    Bit rate                    : 384 kb/s
    Channel(s)                  : 6 channels
    Channel layout              : L R C LFE Ls Rs
    Sampling rate               : 48.0 kHz
    Frame rate                  : 31.250 FPS (1536 SPF)
    Compression mode            : Lossy
    Delay relative to video     : -5 ms
    Stream size                 : 289 MiB (9%)
    Title                       : Español Latino [CinemaniaHDD]
    Language                    : Spanish
    Service kind                : Complete Main
    Default                     : Yes
    Forced                      : Yes

    Audio #2
    ID                          : 3
    Format                      : AC-3
    Format/Info                 : Audio Coding 3
    Commercial name             : Dolby Digital
    Codec ID                    : A_AC3
    Duration                    : 1 h 45 min
    Bit rate mode               : Constant
    Bit rate                    : 448 kb/s
    Channel(s)                  : 6 channels
    Channel layout              : L R C LFE Ls Rs
    Sampling rate               : 48.0 kHz
    Frame rate                  : 31.250 FPS (1536 SPF)
    Compression mode            : Lossy
    Delay relative to video     : -5 ms
    Stream size                 : 337 MiB (10%)
    Title                       : Ingles [CinemaniaHDD]
    Language                    : English
    Service kind                : Complete Main
    Default                     : No
    Forced                      : No

    Text #1
    ID                          : 4
    Format                      : UTF-8
    Codec ID                    : S_TEXT/UTF8
    Codec ID/Info               : UTF-8 Plain Text
    Duration                    : 1 h 32 min
    Bit rate                    : 1 b/s
    Count of elements           : 32
    Stream size                 : 886 Bytes (0%)
    Title                       : Forzados-SRT [CinemaniaHDD]
    Language                    : Spanish
    Default                     : Yes
    Forced                      : Yes

    Text #2
    ID                          : 5
    Format                      : UTF-8
    Codec ID                    : S_TEXT/UTF8
    Codec ID/Info               : UTF-8 Plain Text
    Duration                    : 1 h 43 min
    Bit rate                    : 64 b/s
    Count of elements           : 1577
    Stream size                 : 48.8 KiB (0%)
    Title                       : Español-SRT [CinemaniaHDD]
    Language                    : Spanish
    Default                     : No
    Forced                      : No

    Text #3
    ID                          : 6
    Format                      : UTF-8
    Codec ID                    : S_TEXT/UTF8
    Codec ID/Info               : UTF-8 Plain Text
    Duration                    : 1 h 42 min
    Bit rate                    : 60 b/s
    Count of elements           : 1545
    Stream size                 : 45.6 KiB (0%)
    Title                       : Ingles [CinemaniaHDD]
    Language                    : English
    Default                     : No
    Forced                      : No

    Menu
    00:00:00.000                : Chapter 01
    00:04:43.742                : Chapter 02
    00:06:48.324                : Chapter 03
    00:08:13.118                : Chapter 04
    00:09:33.740                : Chapter 05
    00:11:58.384                : Chapter 06
    00:15:27.176                : Chapter 07
    00:18:05.042                : Chapter 08
    00:20:40.698                : Chapter 09
    00:22:34.394                : Chapter 10
    00:24:37.017                : Chapter 11
    00:25:41.873                : Chapter 12
    00:27:01.244                : Chapter 13
    00:30:53.268                : Chapter 14
    00:32:02.837                : Chapter 15
    00:33:32.927                : Chapter 16
    00:34:23.311                : Chapter 17
    00:36:56.798                : Chapter 18
    00:39:14.185                : Chapter 19
    00:41:55.596                : Chapter 20
    00:45:29.226                : Chapter 21
    00:50:28.942                : Chapter 22
    00:51:37.928                : Chapter 23
    00:54:23.093                : Chapter 24
    00:57:55.346                : Chapter 25
    01:02:11.436                : Chapter 26
    01:04:26.320                : Chapter 27
    01:07:35.843                : Chapter 28
    01:09:15.693                : Chapter 29
    01:10:32.770                : Chapter 30
    01:11:25.572                : Chapter 31
    01:15:37.824                : Chapter 32
    01:16:45.392                : Chapter 33
    01:17:44.076                : Chapter 34
    01:25:18.988                : Chapter 35
    01:27:10.683                : Chapter 36
    01:29:00.960                : Chapter 37
    01:30:42.186                : Chapter 38
    01:33:45.619                : Chapter 39
    01:36:02.381                : Chapter 40
    01:43:35.500                : Chapter 41
    Lightyear (2022) BDRip 1080p Latino[CMHDD].mkv
    File size                   : 9.40 GiB
    Duration                    : 1 h 45 min
    Movie name                  : Lightyear (2022) CinemaniaHDD.Net
    Video
    Format                      : AVC x264 High@L4.1
    Bit rate                    : 10.3 Mb/s
    Width                       : 1 920 pixels
    Height                      : 804 pixels
    Frame rate                  : 23.976 (24000/1001) FPS
    Audio #1
    Format                      : AC-3
    Bit rate                    : 384 kb/s
    Channel(s)                  : 6 channels
    Sampling rate               : 48.0 kHz
    Title                       : Español Latino AC3 [CinemaniaHDD]
    Language                    : Spanish
    Audio #2
    Format                      : E-AC-3
    Bit rate                    : 640 kb/s
    Channel(s)                  : 8 channels
    Sampling rate               : 48.0 kHz
    Title                       : Español Latino EAC3 [CinemaniaHDD]
    Language                    : Spanish
    Audio #3
    Format                      : DTS
    Bit rate                    : 1 509 kb/s
    Channel(s)                  : 6 channels
    Sampling rate               : 48.0 kHz
    Title                       : Ingles [CinemaniaHDD]
    Language                    : English
    Subtitulos: Forzados-SRT, Español-SRT, Ingles-SRT
    Chapters: Yes

  • Peso: 3.17 GiB | 9.40 GiB

Sinopsis

Descargar Lightyear (2022) HD 1080p Latino. Atrapado en un planeta hostil a 4,2 millones de años luz de la Tierra junto a su comandante y su tripulación, Buzz Lightyear intenta encontrar la manera de volver a casa a través del espacio y el tiempo. Pero la llegada de Zurg, una presencia imponente con un ejército de robots despiadados y una agenda misteriosa, complica aún más las cosas y pone en peligro la misión.

Español EAC3 7.1 & AC3 5.1 Web – Ingles DTS 5.1 Bluray

Nota: Version Ligera & Pesada!!!

Ficha técnica

Video trailer de la película

Enlaces de descarga

Rip de Bluray

Descargar Lightyear (2022) HD 1080p Latino




Aportes de DPeliculasHDmega la pass es:dpeliculashdmega.org Aportes de CinemaniaHD la pass es:cinemaniahdd.com

Películas relacionadas

  • Wire Room (2022) HD 1080p Latino

    Wire Room (2022) HD 1080p Latino

    2022
    Wire Room (2022) HD 1080p Latino

    1h 37m 2022

    Descargar Wire Room (2022) HD 1080p Latino. Mientras está de servicio en la sala de cables, un agente...

    Director: Matt Eskandari

    Género: Acción

    Actores: Texas Battle

  • Wire Room (2022) PLACEBO Full HD 1080p Latino

    Wire Room (2022) PLACEBO Full HD 1080p Latino

    2022
    Wire Room (2022) PLACEBO Full HD 1080p Latino

    1h 37m 2022

    Descargar Wire Room (2022) PLACEBO Full HD 1080p Latino. Mientras está de servicio en la sala de cables,...

    Director: Matt Eskandari

    Género: Acción

    Actores: Texas Battle

  • Wire Room (2022) REMUX 1080p Latino

    Wire Room (2022) REMUX 1080p Latino

    2022
    Wire Room (2022) REMUX 1080p Latino

    1h 37m 2022

    Descargar Wire Room (2022) REMUX 1080p Latino. Mientras está de servicio en la sala de cables, un agente...

    Director: Matt Eskandari

    Género: Acción

    Actores: Texas Battle

  • Alarido (2022) HD 1080p Latino

    Alarido (2022) HD 1080p Latino

    2022
    Alarido (2022) HD 1080p Latino

    1h 29m 2022

    Descargar Alarido (2022) HD 1080p Latino. Una joven madre soltera es cautiva junto con sus dos hijos...

    Director: D.J. Caruso

    Género: HD 1080p

    Actores: Vincent Gallo

  • El Cuartel Secreto (2022) WEB-DL 4K UHD HDR Latino

    El Cuartel Secreto (2022) WEB-DL 4K UHD HDR Latino

    2022
    El Cuartel Secreto (2022) WEB-DL 4K UHD HDR Latino

    1h 44m 2022

    Descargar El Cuartel Secreto (2022) WEB-DL 4K UHD HDR Latino. Mientras pasan el rato después de la escuela,...

    Director: Henry Joost

    Género: 4K HDR

    Actores: Zeb Slone

descargar Lightyear (2022) HD 1080p Latino 1080p 1080p gratis, Lightyear (2022) HD 1080p Latino 1080p mega 1 link, Lightyear (2022) HD 1080p Latino 1080p pelicula completa, descargar Lightyear (2022) HD 1080p Latino 1080p gratis en mega.

Lightyear (2022) HD 1080p Latino pelicula full hd, Lightyear (2022) HD 1080p Latino mega latino, Lightyear (2022) HD 1080p Latino 4k latino, Lightyear (2022) HD 1080p Latino pelicula completa, Lightyear (2022) HD 1080p Latino descargar gratis, descargar Lightyear (2022) HD 1080p Latino pelicula latino, Lightyear (2022) HD 1080p Latino 1 link mega, Lightyear (2022) HD 1080p Latino 1 link google drive, Lightyear (2022) HD 1080p Latino hd 1080p latino.
Comentarios 0