×

¿Problemas para descargar con Mozilla, EDGE? Deshabilita la opción "Abrir vinculos en una pestaña nueva" tal como lo muestra ésta imagen.

Cuando las luces se apagan (2016) Full HD 1080p Latino

2.336 vistas

Información de Cuando las luces se apagan (2016) Full HD 1080p Latino

Datos de la película

  • Calidad: Full 1080p
  • Audio: Español Latino AC3 5.1 BLURAY - Ingles DTS 5.1 BLURAY
  • Subtitulos: Español Latino PGS - Ingles PGS
  • Resolución: 1920X1080p
  • Formato: MKV
  • Codec: H.264
  • Encoder: Dracarys | CinefiloCool
  • Mediainfo: Clic para Mostrar Datos Ver
  • Cuando Las Luces Se Apagan (2016) Full HD 1080p Latino-CMHDD.mkv
    Format                      : Matroska
    Format version              : Version 4
    File size                   : 5.48 GiB
    Duration                    : 1 h 20 min
    Overall bit rate            : 9 685 kb/s
    Movie name                  : Lights Out (2016) CinemaniaHDD.Net
    Encoded date                : UTC 2020-10-18 22:36:23
    Writing application         : mkvmerge v51.0.0 ('I Wish') 64-bit
    Writing library             : libebml v1.4.0 + libmatroska v1.6.2
    Attachments                 : CINEMANIAHD.png

    Video
    ID                          : 1
    Format                      : AVC
    Format/Info                 : Advanced Video Codec
    Format profile              : High@L4.1
    Format settings             : CABAC / 4 Ref Frames
    Format settings, CABAC      : Yes
    Format settings, Reference  : 4 frames
    Codec ID                    : V_MPEG4/ISO/AVC
    Duration                    : 1 h 20 min
    Bit rate                    : 7 518 kb/s
    Width                       : 1 920 pixels
    Height                      : 1 080 pixels
    Display aspect ratio        : 16:9
    Frame rate mode             : Constant
    Frame rate                  : 23.976 (24000/1001) FPS
    Color space                 : YUV
    Chroma subsampling          : 4:2:0
    Bit depth                   : 8 bits
    Scan type                   : Progressive
    Bits/(Pixel*Frame)          : 0.151
    Stream size                 : 4.25 GiB (78%)
    Title                       : Full HD1080p [CinemaniaHDD]
    Writing library             : x264 core 157 r2935 545de2f
    Encoding settings           : cabac=1 / ref=4 / deblock=1:0:0 / analyse=0x3:0x133 / me=tesa / subme=11 / psy=1 / psy_rd=1.00:0.00 / mixed_ref=1 / me_range=24 / chroma_me=1 / trellis=2 / 8x8dct=1 / cqm=0 / deadzone=21,11 / fast_pskip=0 / chroma_qp_offset=-2 / threads=24 / lookahead_threads=6 / sliced_threads=0 / nr=0 / decimate=1 / interlaced=0 / bluray_compat=0 / constrained_intra=0 / bframes=16 / b_pyramid=2 / b_adapt=2 / b_bias=0 / direct=3 / weightb=1 / open_gop=0 / weightp=2 / keyint=240 / keyint_min=24 / scenecut=40 / intra_refresh=0 / rc_lookahead=60 / rc=crf / mbtree=1 / crf=20.0 / qcomp=0.60 / qpmin=0 / qpmax=69 / qpstep=4 / vbv_maxrate=62500 / vbv_bufsize=78125 / crf_max=0.0 / nal_hrd=none / filler=0 / ip_ratio=1.40 / aq=1:1.00
    Default                     : Yes
    Forced                      : No
    Color range                 : Limited
    Color primaries             : BT.709
    Transfer characteristics    : BT.709
    Matrix coefficients         : BT.709

    Audio #1
    ID                          : 2
    Format                      : AC-3
    Format/Info                 : Audio Coding 3
    Commercial name             : Dolby Digital
    Codec ID                    : A_AC3
    Duration                    : 1 h 20 min
    Bit rate mode               : Constant
    Bit rate                    : 640 kb/s
    Channel(s)                  : 6 channels
    Channel layout              : L R C LFE Ls Rs
    Sampling rate               : 48.0 kHz
    Frame rate                  : 31.250 FPS (1536 SPF)
    Compression mode            : Lossy
    Stream size                 : 371 MiB (7%)
    Title                       : Español Latino [CinemaniaHDD]
    Language                    : Spanish
    Service kind                : Complete Main
    Default                     : Yes
    Forced                      : No

    Audio #2
    ID                          : 3
    Format                      : DTS
    Format/Info                 : Digital Theater Systems
    Codec ID                    : A_DTS
    Duration                    : 1 h 20 min
    Bit rate mode               : Constant
    Bit rate                    : 1 509 kb/s
    Channel(s)                  : 6 channels
    Channel layout              : C L R Ls Rs LFE
    Sampling rate               : 48.0 kHz
    Frame rate                  : 93.750 FPS (512 SPF)
    Bit depth                   : 24 bits
    Compression mode            : Lossy
    Stream size                 : 874 MiB (16%)
    Title                       : Ingles [CinemaniaHDD]
    Language                    : English
    Default                     : No
    Forced                      : No

    Text #1
    ID                          : 4
    Format                      : PGS
    Muxing mode                 : zlib
    Codec ID                    : S_HDMV/PGS
    Codec ID/Info               : Picture based subtitle format used on BDs/HD-DVDs
    Duration                    : 1 h 19 min
    Bit rate                    : 19.7 kb/s
    Count of elements           : 1642
    Stream size                 : 11.2 MiB (0%)
    Title                       : Español-PGS [CinemaniaHDD]
    Language                    : Spanish
    Default                     : No
    Forced                      : No

    Text #2
    ID                          : 5
    Format                      : PGS
    Muxing mode                 : zlib
    Codec ID                    : S_HDMV/PGS
    Codec ID/Info               : Picture based subtitle format used on BDs/HD-DVDs
    Duration                    : 1 h 20 min
    Bit rate                    : 25.6 kb/s
    Count of elements           : 1932
    Stream size                 : 14.6 MiB (0%)
    Title                       : Ingles-PGS [CinemaniaHDD]
    Language                    : English
    Default                     : No
    Forced                      : No

    Text #3
    ID                          : 6
    Format                      : UTF-8
    Codec ID                    : S_TEXT/UTF8
    Codec ID/Info               : UTF-8 Plain Text
    Duration                    : 1 h 3 min
    Bit rate                    : 0 b/s
    Count of elements           : 10
    Stream size                 : 247 Bytes (0%)
    Title                       : Forzados-SRT [CinemaniaHDD]
    Language                    : Spanish
    Default                     : Yes
    Forced                      : No

    Text #4
    ID                          : 7
    Format                      : UTF-8
    Codec ID                    : S_TEXT/UTF8
    Codec ID/Info               : UTF-8 Plain Text
    Duration                    : 1 h 19 min
    Bit rate                    : 31 b/s
    Count of elements           : 820
    Stream size                 : 18.5 KiB (0%)
    Title                       : Español-SRT [CinemaniaHDD]
    Language                    : Spanish
    Default                     : No
    Forced                      : No

    Menu
    00:00:00.000                : en:Chapter 1
    00:10:01.559                : en:Chapter 2
    00:21:07.349                : en:Chapter 3
    00:30:12.936                : en:Chapter 4
    00:40:57.663                : en:Chapter 5
    00:50:38.285                : en:Chapter 6
    00:58:43.603                : en:Chapter 7
    01:09:54.190                : en:Chapter 8
    01:16:21.285                : en:Chapter 9

  • Peso: 5.48 GiB

Sinopsis

Descargar Cuando las luces se apagan (2016) Full HD 1080p Latino. Cuando Rebecca dejó su antiguo hogar, pensó que había dejado atrás sus temores de la infancia. De niña ella nunca estaba segura de lo que era y no era real cuando se apagaban las luces; ahora su pequeño hermano Martin, está experimentando los mismos acontecimientos inexplicables y aterradores que habían probado su cordura y amenazado su seguridad. Una aterradora entidad con un misterioso apego a su madre, Sophie, ha resurgido.

RESUBIDO NUEVO RIP VERSION PLACEBO!!

Ficha técnica

Video trailer de la película

Enlaces de descarga

Rip de Bluray

Descargar Cuando las luces se apagan (2016) Full HD 1080p Latino




Aportes de DPeliculasHDmega la pass es:dpeliculashdmega.org Aportes de CinemaniaHD la pass es:cinemaniahdd.com

Películas relacionadas

descargar Cuando las luces se apagan (2016) Full HD 1080p Latino Full 1080p 1080p gratis, Cuando las luces se apagan (2016) Full HD 1080p Latino Full 1080p mega 1 link, Cuando las luces se apagan (2016) Full HD 1080p Latino Full 1080p pelicula completa, descargar Cuando las luces se apagan (2016) Full HD 1080p Latino Full 1080p gratis en mega.

Cuando las luces se apagan (2016) Full HD 1080p Latino pelicula full hd, Cuando las luces se apagan (2016) Full HD 1080p Latino mega latino, Cuando las luces se apagan (2016) Full HD 1080p Latino 4k latino, Cuando las luces se apagan (2016) Full HD 1080p Latino pelicula completa, Cuando las luces se apagan (2016) Full HD 1080p Latino descargar gratis, descargar Cuando las luces se apagan (2016) Full HD 1080p Latino pelicula latino, Cuando las luces se apagan (2016) Full HD 1080p Latino 1 link mega, Cuando las luces se apagan (2016) Full HD 1080p Latino 1 link google drive, Cuando las luces se apagan (2016) Full HD 1080p Latino hd 1080p latino.
Comentarios 0